(Classical / Vocal) Franz Schubert - Lieder / Франц Шуберт - Песни (Elly Ameling, Dalton Baldwin / Элли Амелинг, Далтон Болдуин, 1973) - 2004, FLAC (image+.cue) lossless


 

[Цитировать]

Franz Schubert | Франц Шуберт
(1797–1828)



Lieder | Songs | Песни


Elly Ameling sopranoDalton Baldwin piano


Жанр: Classical / Vocal
Дата и место записи: Concertgebouw, Amsterdam, VIII.1973
Формат записи: ADD, Stereo
Год издания диска: 2004
Издатель (лейбл): PentaTone Music
Номер по каталогу: PTC 5186 132
Аудиокодек: FLAC
Тип рипа: image+.cue
Битрейт аудио: lossless
Продолжительность: 1:11:00
Наличие сканов в содержимом раздачи: да
Источник: блог OdeonMusic

-Tracklist / Треклист
«Das Lied im Grünen» (Johann Anton Friedrich Reil), Op. 115 Nr. 1 (D. 917) - 5:14
  • «Der Schmetterling» (Friedrich von Schlegel), Op. 75 Nr. 1 (D. 633) - 1:29
  • «An die Nachtigall» (Matthias Claudius), Op. 98 Nr. 1 (D. 497) - 1:28
  • «An die Nachtigall» (Ludwig Christoph Heinrich Hölty), Op. 172 Nr. 3 (D. 196) - 2:01
  • «Der Wachtelschlag» (Samuel Friedrich Sauter), Op. 68 (D. 742) - 1:49
  • «Im Freien» (Johann Gabriel Seidl), Op. 80 Nr. 3 (D. 880) - 4:33
  • «Die Vögel» (Friedrich von Schlegel), Op. 172 Nr. 6 (D. 691) - 1:00
  • «Fischerweise» (Franz von Schlechta), Op. 96 Nr. 4 (D. 869) - 3:09
  • «Die Gebüsche» (Friedrich von Schlegel), D. 646 - 2:16
  • «Im Haine» (Franz von Bruchmann), Op. 56 Nr. 3 (D. 738) - 2:20
  • «Im Abendrot» (Karl Lappe), D. 799 - 4:13
  • «Die Sterne» (Karl Gottfried von Leitner), Op. 96 Nr. 1 (D. 939) - 3:04
  • «Nacht und Träume» (Matthäus von Collin), Op. 43 Nr. 2 (D. 827) - 3:51
  • «Der liebliche Stern» (Ernst Schulze), D. 861 - 2:48
  • Romanze aus «Rosamunde» (Helmina von Chézy), Op. 26 (D. 797/3b) - 3:19
  • «Der Einsame» (Karl Lappe), Op. 41 (D. 800) - 3:55
  • «Schlummerlied» (Johann Mayrhofer), Op. 24 Nr. 2 (D. 527) - 3:03
  • «An Sylvia» (William Shakespeare/Eduard von Bauernfeld), Op. 106 Nr. 4 (D. 891) - 2:53
  • «Das Mädchen» (Friedrich von Schlegel), D. 652 - 2:33
  • «Minnelied» (Ludwig Christoph Heinrich Hölty), D. 429 - 1:34
  • «Die Liebe hat gelogen» (August von Platen), Op. 23 Nr. 1 (D. 751) - 2:36
  • «Du liebst mich nicht» (August von Platen), Op. 59 Nr. 1 (D. 756) - 3:40
  • «An die Laute» (Friedrich Rochlitz), Op. 81 Nr. 2 (D. 905) - 1:36
  • «Der Blumenbrief» (Aloys Wilhelm Schreiber), D. 622 - 2:13
  • «Die Männer sind méchant» (Johann Gabriel Seidl), Op. 95 Nr. 3 (D. 866) - 2:30
  • «Seligkeit» (Ludwig Christoph Heinrich Hölty), D. 433 - 1:53-

    EAC log / Отчёт EAC

    Exact Audio Copy V1.0 beta 3 from 29. August 2011
    EAC extraction logfile from 15. March 2013, 9:21
    Elly Ameling & Dalton Baldwin / Schubert - Lieder - Elly Ameling
    Used drive : TSSTcorpCDDVDW SH-222BB Adapter: 2 ID: 1
    Read mode : Secure
    Utilize accurate stream : Yes
    Defeat audio cache : Yes
    Make use of C2 pointers : No
    Read offset correction : 6
    Overread into Lead-In and Lead-Out : No
    Fill up missing offset samples with silence : Yes
    Delete leading and trailing silent blocks : No
    Null samples used in CRC calculations : Yes
    Used interface : Native Win32 interface for Win NT & 2000
    Used output format : User Defined Encoder
    Selected bitrate : 1024 kBit/s
    Quality : High
    Add ID3 tag : No
    Command line compressor : C:\Program Files\Exact Audio Copy\Flac\flac.exe
    Additional command line options : -8 -V -T "TITLE=%title%" -T "ARTIST=%artist%" -T "ALBUMARTIST=%albumartist%" -T "ALBUM=%albumtitle%" -T "DATE=%year%" -T "TRACKNUMBER=%tracknr%" -T "TRACKTOTAL=%numtracks%" -T "GENRE=%genre%" -T "COMMENT=%comment%" -T "PERFORMER=%albuminterpret%" -T "COMPOSER=%composer%" %source% -o %dest%
    TOC of the extracted CD
    Track | Start | Length | Start sector | End sector
    ---------------------------------------------------------
    1 | 0:00.00 | 5:13.67 | 0 | 23541
    2 | 5:13.67 | 1:28.38 | 23542 | 30179
    3 | 6:42.30 | 1:28.04 | 30180 | 36783
    4 | 8:10.34 | 2:01.24 | 36784 | 45882
    5 | 10:11.58 | 1:48.63 | 45883 | 54045
    6 | 12:00.46 | 4:33.32 | 54046 | 74552
    7 | 16:34.03 | 0:59.67 | 74553 | 79044
    8 | 17:33.70 | 3:08.51 | 79045 | 93195
    9 | 20:42.46 | 2:15.52 | 93196 | 103372
    10 | 22:58.23 | 2:19.71 | 103373 | 113868
    11 | 25:18.19 | 4:13.34 | 113869 | 132877
    12 | 29:31.53 | 3:04.05 | 132878 | 146682
    13 | 32:35.58 | 3:50.70 | 146683 | 164002
    14 | 36:26.53 | 2:47.70 | 164003 | 176597
    15 | 39:14.48 | 3:18.48 | 176598 | 191495
    16 | 42:33.21 | 3:55.16 | 191496 | 209136
    17 | 46:28.37 | 3:02.38 | 209137 | 222824
    18 | 49:31.00 | 2:53.00 | 222825 | 235799
    19 | 52:24.00 | 2:33.32 | 235800 | 247306
    20 | 54:57.32 | 1:34.11 | 247307 | 254367
    21 | 56:31.43 | 2:35.72 | 254368 | 266064
    22 | 59:07.40 | 3:39.52 | 266065 | 282541
    23 | 62:47.17 | 1:35.44 | 282542 | 289710
    24 | 64:22.61 | 2:13.15 | 289711 | 299700
    25 | 66:36.01 | 2:30.20 | 299701 | 310970
    26 | 69:06.21 | 1:53.29 | 310971 | 319474
    Range status and errors
    Selected range
    Filename G:\Ripped general\[9087] Schubert – Lieder – Elly Ameling\Schubert - Lieder - Elly Ameling.wav
    Peak level 89.8 %
    Extraction speed 8.0 X
    Range quality 100.0 %
    Test CRC 93C68EA9
    Copy CRC 93C68EA9
    Copy OK
    No errors occurred
    AccurateRip summary
    Track 1 accurately ripped (confidence 3) [11757978] (AR v2)
    Track 2 accurately ripped (confidence 3) [D0EE3FB4] (AR v2)
    Track 3 accurately ripped (confidence 3) [226009E4] (AR v2)
    Track 4 accurately ripped (confidence 3) [66517703] (AR v2)
    Track 5 accurately ripped (confidence 3) [B43BFAC8] (AR v2)
    Track 6 accurately ripped (confidence 3) [74A8F938] (AR v2)
    Track 7 accurately ripped (confidence 3) [68391FD6] (AR v2)
    Track 8 accurately ripped (confidence 3) [A0EE49C0] (AR v2)
    Track 9 accurately ripped (confidence 3) [E9AB01D9] (AR v2)
    Track 10 accurately ripped (confidence 3) [ABF0870B] (AR v2)
    Track 11 accurately ripped (confidence 3) [C40F5333] (AR v2)
    Track 12 accurately ripped (confidence 3) [AFF5383D] (AR v2)
    Track 13 accurately ripped (confidence 3) [612F6967] (AR v2)
    Track 14 accurately ripped (confidence 3) [B293AF8B] (AR v2)
    Track 15 accurately ripped (confidence 3) [4875E789] (AR v2)
    Track 16 accurately ripped (confidence 3) [B1F5CC49] (AR v2)
    Track 17 accurately ripped (confidence 3) [71D27432] (AR v2)
    Track 18 accurately ripped (confidence 3) [722D07D3] (AR v2)
    Track 19 accurately ripped (confidence 3) [6784D366] (AR v2)
    Track 20 accurately ripped (confidence 3) [5AEF35B7] (AR v2)
    Track 21 accurately ripped (confidence 3) [4EC4A668] (AR v2)
    Track 22 accurately ripped (confidence 3) [D00A7502] (AR v2)
    Track 23 accurately ripped (confidence 3) [F9102B4C] (AR v2)
    Track 24 accurately ripped (confidence 3) [1765067E] (AR v2)
    Track 25 accurately ripped (confidence 3) [7E4FAE84] (AR v2)
    Track 26 accurately ripped (confidence 3) [059859B6] (AR v2)
    All tracks accurately ripped
    End of status report

    auCDtect Task Manager log / Отчёт auCDtect Task Manager

    -----------------------
    DON'T MODIFY THIS FILE
    -----------------------
    PERFORMER: auCDtect Task Manager, ver. 1.5.1RC3 build 1.5.1.4
    Copyright (c) 2008-2010 y-soft. All rights reserved
    ANALYZER: auCDtect: CD records authenticity detector, version 0.8.2
    Copyright (c) 2004 Oleg Berngardt. All rights reserved.
    Copyright (c) 2004 Alexander Djourik. All rights reserved.
    FILE: Schubert. Lieder (Ameling, Baldwin).flac
    Size: 290325943 Hash: D2995870F511F336715B210CCAE51C92 Accuracy: -m0
    Conclusion: MPEG 100%
    Signature: CA76CF066549489083CB5F4C5E82D5CCD2739A52

    Спектр

    CUETools log / Отчёт CUETools

    [CUETools log; Date: 13.06.2013 17:46:07; Version: 2.1.2a]
    [AccurateRip ID: 0043333f-04ea67f6-a510a31a] found.
    Track [ CRC ] Status
    01 [325af19c] (07/10) Accurately ripped
    02 [863beade] (07/10) Accurately ripped
    03 [3d68bf11] (07/10) Accurately ripped
    04 [991f30c5] (07/10) Accurately ripped
    05 [39eb5dd0] (07/10) Accurately ripped
    06 [ef1b660b] (07/10) Accurately ripped
    07 [bfed0e9d] (07/10) Accurately ripped
    08 [81a8f44c] (07/10) Accurately ripped
    09 [993399fc] (07/10) Accurately ripped
    10 [82dcaa89] (07/10) Accurately ripped
    11 [5cfe152e] (07/10) Accurately ripped
    12 [c5043827] (07/10) Accurately ripped
    13 [30c3c121] (07/10) Accurately ripped
    14 [2103ee6f] (07/10) Accurately ripped
    15 [34017ca3] (07/10) Accurately ripped
    16 [9e981b42] (07/10) Accurately ripped
    17 [630eb01b] (07/10) Accurately ripped
    18 [411f79fa] (07/10) Accurately ripped
    19 [46640216] (07/10) Accurately ripped
    20 [c96539a4] (07/10) Accurately ripped
    21 [85ad8b33] (07/10) Accurately ripped
    22 [b0f4b8e2] (07/10) Accurately ripped
    23 [cbeefc64] (07/10) Accurately ripped
    24 [6888107f] (07/10) Accurately ripped
    25 [e777032d] (07/10) Accurately ripped
    26 [be463bcf] (07/10) Accurately ripped
    AccurateRip v2:
    01 [11757978] (03/10) Accurately ripped
    02 [d0ee3fb4] (03/10) Accurately ripped
    03 [226009e4] (03/10) Accurately ripped
    04 [66517703] (03/10) Accurately ripped
    05 [b43bfac8] (03/10) Accurately ripped
    06 [74a8f938] (03/10) Accurately ripped
    07 [68391fd6] (03/10) Accurately ripped
    08 [a0ee49c0] (03/10) Accurately ripped
    09 [e9ab01d9] (03/10) Accurately ripped
    10 [abf0870b] (03/10) Accurately ripped
    11 [c40f5333] (03/10) Accurately ripped
    12 [aff5383d] (03/10) Accurately ripped
    13 [612f6967] (03/10) Accurately ripped
    14 [b293af8b] (03/10) Accurately ripped
    15 [4875e789] (03/10) Accurately ripped
    16 [b1f5cc49] (03/10) Accurately ripped
    17 [71d27432] (03/10) Accurately ripped
    18 [722d07d3] (03/10) Accurately ripped
    19 [6784d366] (03/10) Accurately ripped
    20 [5aef35b7] (03/10) Accurately ripped
    21 [4ec4a668] (03/10) Accurately ripped
    22 [d00a7502] (03/10) Accurately ripped
    23 [f9102b4c] (03/10) Accurately ripped
    24 [1765067e] (03/10) Accurately ripped
    25 [7e4fae84] (03/10) Accurately ripped
    26 [059859b6] (03/10) Accurately ripped
    Track Peak [ CRC32 ] [W/O NULL] [ LOG ]
    -- 89,8 [93C68EA9] [0C8C9DF3] CRC32
    01 76,2 [0B6A5BA9] [1858FB82]
    02 35,4 [FB289684] [185B6FCF]
    03 48,6 [D4D8539B] [A940D7C6]
    04 89,8 [BC9AC0DA] [6D0A0B89]
    05 43,2 [FEF2C4B6] [1864D60B]
    06 78,4 [300CB4CB] [F6F61404]
    07 52,7 [3E92F6ED] [097DC221]
    08 46,9 [BACFF350] [BEF98990]
    09 69,4 [0F1CEF7D] [C15B6303]
    10 60,3 [144992A3] [8F603C25]
    11 52,5 [E49FCB8E] [1D740A49]
    12 67,8 [6B579A4E] [12E559C3]
    13 22,1 [E5C10A03] [5553A02C]
    14 55,1 [06074944] [E41C95D7]
    15 32,9 [7068FC46] [3B0ADFB7]
    16 53,9 [0F5840C7] [ED78F111]
    17 22,6 [D8171997] [713D2BF0]
    18 69,0 [63A655E0] [5A255260]
    19 47,9 [83F528BC] [224113C1]
    20 57,7 [CF1E6335] [DE1B3318]
    21 69,2 [9F77DF97] [838AF75E]
    22 65,4 [299CFB75] [5B456A3F]
    23 35,7 [C75CB313] [BDF27DB6]
    24 55,6 [5DE0E28A] [3C92FAB0]
    25 40,0 [7576394E] [7026BBB9]
    26 82,5 [2D3E6BFE] [31764A90]

    CUE sheet

    TITLE "Franz Schubert. Lieder"
    PERFORMER "Elly Ameling"
    REM GENRE Classical
    REM DISCID A510A31A
    REM COMMENT "ExactAudioCopy v1.0b3"
    FILE "Schubert. Lieder (Ameling, Baldwin).flac" WAVE
    TRACK 01 AUDIO
    TITLE "«Das Lied im Grünen» (Johann Anton Friedrich Reil), Op. 115 Nr. 1 (D. 917)"
    PERFORMER "Elly Ameling (soprano), Dalton Baldwin (piano)"
    REM DATE 1973
    INDEX 01 00:00:00
    TRACK 02 AUDIO
    TITLE "«Der Schmetterling» (Friedrich von Schlegel), Op. 75 Nr. 1 (D. 633)"
    PERFORMER "Elly Ameling (soprano), Dalton Baldwin (piano)"
    REM DATE 1973
    INDEX 00 05:09:66
    INDEX 01 05:13:67
    TRACK 03 AUDIO
    TITLE "«An die Nachtigall» (Matthias Claudius), Op. 98 Nr. 1 (D. 497)"
    PERFORMER "Elly Ameling (soprano), Dalton Baldwin (piano)"
    REM DATE 1973
    INDEX 00 06:40:18
    INDEX 01 06:42:30
    TRACK 04 AUDIO
    TITLE "«An die Nachtigall» (Ludwig Christoph Heinrich Hölty), Op. 172 Nr. 3 (D. 196)"
    PERFORMER "Elly Ameling (soprano), Dalton Baldwin (piano)"
    REM DATE 1973
    INDEX 00 08:06:15
    INDEX 01 08:10:34
    TRACK 05 AUDIO
    TITLE "«Der Wachtelschlag» (Samuel Friedrich Sauter), Op. 68 (D. 742)"
    PERFORMER "Elly Ameling (soprano), Dalton Baldwin (piano)"
    REM DATE 1973
    INDEX 00 10:09:08
    INDEX 01 10:11:58
    TRACK 06 AUDIO
    TITLE "«Im Freien» (Johann Gabriel Seidl), Op. 80 Nr. 3 (D. 880)"
    PERFORMER "Elly Ameling (soprano), Dalton Baldwin (piano)"
    REM DATE 1973
    INDEX 00 11:58:03
    INDEX 01 12:00:46
    TRACK 07 AUDIO
    TITLE "«Die Vögel» (Friedrich von Schlegel), Op. 172 Nr. 6 (D. 691)"
    PERFORMER "Elly Ameling (soprano), Dalton Baldwin (piano)"
    REM DATE 1973
    INDEX 00 16:29:70
    INDEX 01 16:34:03
    TRACK 08 AUDIO
    TITLE "«Fischerweise» (Franz von Schlechta), Op. 96 Nr. 4 (D. 869)"
    PERFORMER "Elly Ameling (soprano), Dalton Baldwin (piano)"
    REM DATE 1973
    INDEX 00 17:32:00
    INDEX 01 17:33:70
    TRACK 09 AUDIO
    TITLE "«Die Gebüsche» (Friedrich von Schlegel), D. 646"
    PERFORMER "Elly Ameling (soprano), Dalton Baldwin (piano)"
    REM DATE 1973
    INDEX 00 20:40:40
    INDEX 01 20:42:46
    TRACK 10 AUDIO
    TITLE "«Im Haine» (Franz von Bruchmann), Op. 56 Nr. 3 (D. 738)"
    PERFORMER "Elly Ameling (soprano), Dalton Baldwin (piano)"
    REM DATE 1973
    INDEX 00 22:55:45
    INDEX 01 22:58:23
    TRACK 11 AUDIO
    TITLE "«Im Abendrot» (Karl Lappe), D. 799"
    PERFORMER "Elly Ameling (soprano), Dalton Baldwin (piano)"
    REM DATE 1973
    INDEX 00 25:14:38
    INDEX 01 25:18:19
    TRACK 12 AUDIO
    TITLE "«Die Sterne» (Karl Gottfried von Leitner), Op. 96 Nr. 1 (D. 939)"
    PERFORMER "Elly Ameling (soprano), Dalton Baldwin (piano)"
    REM DATE 1973
    INDEX 00 29:30:28
    INDEX 01 29:31:53
    TRACK 13 AUDIO
    TITLE "«Nacht und Träume» (Matthäus von Collin), Op. 43 Nr. 2 (D. 827)"
    PERFORMER "Elly Ameling (soprano), Dalton Baldwin (piano)"
    REM DATE 1973
    INDEX 00 32:33:48
    INDEX 01 32:35:58
    TRACK 14 AUDIO
    TITLE "«Der liebliche Stern» (Ernst Schulze), D. 861"
    PERFORMER "Elly Ameling (soprano), Dalton Baldwin (piano)"
    REM DATE 1973
    INDEX 00 36:25:25
    INDEX 01 36:26:53
    TRACK 15 AUDIO
    TITLE "Romanze aus «Rosamunde»» (Helmina von Chézy), Op. 26 (D. 797/3b)"
    PERFORMER "Elly Ameling (soprano), Dalton Baldwin (piano)"
    REM DATE 1973
    INDEX 00 39:11:30
    INDEX 01 39:14:48
    TRACK 16 AUDIO
    TITLE "«Der Einsame» (Karl Lappe), Op. 41 (D. 800)"
    PERFORMER "Elly Ameling (soprano), Dalton Baldwin (piano)"
    REM DATE 1973
    INDEX 00 42:31:33
    INDEX 01 42:33:21
    TRACK 17 AUDIO
    TITLE "«Schlummerlied» (Johann Mayrhofer), Op. 24 Nr. 2 (D. 527)"
    PERFORMER "Elly Ameling (soprano), Dalton Baldwin (piano)"
    REM DATE 1973
    INDEX 00 46:25:63
    INDEX 01 46:28:37
    TRACK 18 AUDIO
    TITLE "«An Sylvia» (William Shakespere/Eduard von Bauernfeld), Op. 106 Nr. 4 (D. 891)"
    PERFORMER "Elly Ameling (soprano), Dalton Baldwin (piano)"
    REM DATE 1973
    INDEX 00 49:27:35
    INDEX 01 49:31:00
    TRACK 19 AUDIO
    TITLE "«Das Mädchen» (Friedrich von Schlegel), D. 652"
    PERFORMER "Elly Ameling (soprano), Dalton Baldwin (piano)"
    REM DATE 1973
    INDEX 00 52:21:60
    INDEX 01 52:24:00
    TRACK 20 AUDIO
    TITLE "«Minnelied» (Ludwig Christoph Heinrich Hölty), D. 429"
    PERFORMER "Elly Ameling (soprano), Dalton Baldwin (piano)"
    REM DATE 1973
    INDEX 00 54:55:08
    INDEX 01 54:57:32
    TRACK 21 AUDIO
    TITLE "«Die Liebe hat gelogen» (August von Platen), Op. 23 Nr. 1 (D. 751)"
    PERFORMER "Elly Ameling (soprano), Dalton Baldwin (piano)"
    REM DATE 1973
    INDEX 00 56:28:63
    INDEX 01 56:31:43
    TRACK 22 AUDIO
    TITLE "«Du liebst mich nicht» (August von Platen), Op. 59 Nr. 1 (D. 756)"
    PERFORMER "Elly Ameling (soprano), Dalton Baldwin (piano)"
    REM DATE 1973
    INDEX 00 59:04:45
    INDEX 01 59:07:40
    TRACK 23 AUDIO
    TITLE "«An die Laute» (Friedrich Rochlitz), Op. 81 Nr. 2 (D. 905)"
    PERFORMER "Elly Ameling (soprano), Dalton Baldwin (piano)"
    REM DATE 1973
    INDEX 00 62:44:23
    INDEX 01 62:47:17
    TRACK 24 AUDIO
    TITLE "«Der Blumenbrief» (Aloys Wilhelm Schreiber), D. 622"
    PERFORMER "Elly Ameling (soprano), Dalton Baldwin (piano)"
    REM DATE 1973
    INDEX 00 64:19:50
    INDEX 01 64:22:61
    TRACK 25 AUDIO
    TITLE "«Die Männer sind méchant» (Johann Gabriel Seidl), Op. 95 Nr. 3 (D. 866)"
    PERFORMER "Elly Ameling (soprano), Dalton Baldwin (piano)"
    REM DATE 1973
    INDEX 00 66:33:38
    INDEX 01 66:36:01
    TRACK 26 AUDIO
    TITLE "«Seligkeit» (Ludwig Christoph Heinrich Hölty), D. 433"
    PERFORMER "Elly Ameling (soprano), Dalton Baldwin (piano)"
    REM DATE 1973
    INDEX 00 69:03:58
    INDEX 01 69:06:21
    -
    Franz Schubert — каталог раздач на rutracker.orgВсе мои раздачи / All my releases



  • Показать сообщения:    

    Текущее время: 08-Дек 12:53

    Часовой пояс: UTC + 3


    Вы не можете начинать темы
    Вы не можете отвечать на сообщения
    Вы не можете редактировать свои сообщения
    Вы не можете удалять свои сообщения
    Вы не можете голосовать в опросах
    Вы не можете прикреплять файлы к сообщениям
    Вы не можете скачивать файлы