Московский уик-энд Дайаны Росс / Diana Ross (редакция телепрограмм "Лира") [1995, документальный, музыкальный, DVB]


Статистика раздачи [Обновить пиров]
Размер:  1.12 GB   |    Зарегистрирован:  8 месяцев 22 дня   |    Скачан:  0 раз

Полного источника не было: Никогда

 
   
 
 
 

[Цитировать]

Дайана Росс
Московский уик-энд- Год выпуска: 1995
Страна: Россия
Жанр: документальный, музыкальный
Продолжительность: 00:38:08
Перевод: Не требуется
Русские субтитры: нет
Режиссер: редакция телепрограмм "Лира" по заказу ОРТОписание: 16 и 17 июня 1995 года на сцене Кремлевского дворца прошли два концерта самой популярной и удачливой, по мнению "Книги рекордов Гиннесса", американской певицы Дайаны Росс. Концерты в Москве проходили в рамках евроазиатского турне, во время которого певица впервые выступала на территории Восточной и Южной Европы.
Проигнорировав 12 приглашений, сделанных Госконцертом в застойные годы, звезда музыки соул Дайана Росс, первая по количеству продаж своих дисков среди поп-певиц последних десятилетий, наконец предстала перед московской аудиторией. Правда, объявленного перед началом гастролей оркестра из восемнадцати человек и внушительной группы танцоров с ней не оказалось. Знаменитого шоу, в течение тридцати лет остававшегося образцом эстрадной драматургии, Москва не увидела, удовлетворившись его переложением в общих чертах.
На кремлевской сцене, появившись в качестве нестареющей сказки, Дайана Росс четырежды меняла Барби-туалеты, выходила в народ, здоровалась с друзьями и незнакомыми, позволяла целовать себе руки, спрашивала, хорош ли звук, ведь она любит мягкий и обволакивающий. Публика отвечала "хорош", что, впрочем, не соответствовало действительности. Аппарат "не тянул", и сливочная музыка песен о любви звучала с перегрузками, не наполняя зала. Однообразные световые эффекты быстро приелись. Публика благодарно вкушала пению, все более фальшивому от номера к номеру, и однообразной приятности как с конвейера сходящих номеров и платьев. Ни минуты не сомневаясь в искренности актрисы, она все же никак не заводилась. Милая песенка "Supremes Baby Love", элегические джазовые напевы с диска "Lady Sings The Blues", эффектные диско-хиты — "Upside Down" с альбома "Diana" (1980), "Mirror" и "Why Do Fools Fall In Love" с одноименного диска 1981 года — звучали напоминанием о былых заслугах. Инструменталисты и бэк-вокалисты в кратких соло, позволенных под конец вечера, выглядели стандартно, но пристойно. Целое же звучало бледно и вяло. Концерт окончился скоропостижно, без бисов, певица даже не допела два номера из запланированной программы. И хотя провалом шоу не назовешь, для первого знакомства с аудиторией, успевшей забыть музыку юности, Дайана Росс оказалась слишком уверенной в своей известности. (из статьи Светланы Сафоновой "Концерты Дайаны Росс в Москве" для "Коммерсантъ")
В документальный фильм о пребывании Дайаны Росс в Москве включены фрагменты московских интервью, официальные видеоклипы и три песни в живом исполнении с московского концерта.
Доп. информация: Запись со спутника (канал "Время: далекое и близкое").
Сэмпл: http://multi-up.com/875376
качество: DVB
формат: MPEG-PS (См. при проблемах с просмотром видео)
Видео: MPEG Video 2, 720x576@768x576 (4:3), 25 fps, ~3937 kbps avg, 0.380 bit/pixel
Аудио: 48 kHz, MPEG Audio 2, 2 ch, ~192.00 kbps avg

MediaInfo

Полное имя                               : H:\My Torrents\[apreder]Diana_Ross_Moscow_Week-end(1995)DVB.mpg
Формат : MPEG-PS
Размер файла : 1,12 Гбайт
Продолжительность : 38 м.
Режим общего битрейта : Переменный
Общий поток : 4213 Кбит/сек
Видео
Идентификатор : 224 (0xE0)
Формат : MPEG Video
Версия формата : Version 2
Профиль формата : Main@Main
Параметр BVOP формата : Да
Параметр матрицы формата : Выборочная
Параметр GOP формата : M=3, N=12
Продолжительность : 38 м.
Вид битрейта : Переменный
Битрейт : 3937 Кбит/сек
Ширина : 720 пикселей
Высота : 576 пикселей
Соотношение сторон : 4:3
Частота кадров : 25,000 кадров/сек
Стандарт вещания : PAL
Цветовое пространство : YUV
Субдискретизация насыщенности : 4:2:0
Битовая глубина : 8 бит
Тип развёртки : Чересстрочная
Порядок развёртки : Верхнее поле первое
Метод сжатия : С потерями
Бит/(Пиксели*Кадры) : 0.380
TimeCode_FirstFrame : 00:00:00:00
TimeCode_Source : Group of pictures header
Размер потока : 1,05 Гбайт (93%)
Аудио
Идентификатор : 192 (0xC0)
Формат : MPEG Audio
Версия формата : Version 1
Профиль формата : Layer 2
Продолжительность : 38 м.
Вид битрейта : Постоянный
Битрейт : 192 Кбит/сек
Каналы : 2 канала
Частота : 48,0 КГц
Метод сжатия : С потерями
Размер потока : 52,4 Мбайт (5%)

Скриншоты


Скриншоты анаморфированные


-793/775√
[teatrix.ru].t17146.torrent 
Торрент: Зарегистрирован [ 2016-03-17 00:50 ] · FEF6E0EC976847E19683D0A3CA52D3244DEC6E06

Скачать .torrent

Скачать

12 KB

Статус: проверено
Скачан: 0 раз
Размер: 1.12 GB
terms.php



Быстрый ответ

Имя:

      
Для отправки сообщений необходимо включить JavaScript
Показать сообщения:    

Текущее время: 08-Дек 21:08

Часовой пояс: UTC + 3


Вы можете начинать темы
Вы можете отвечать на сообщения
Вы не можете редактировать свои сообщения
Вы не можете удалять свои сообщения
Вы не можете голосовать в опросах
Вы не можете прикреплять файлы к сообщениям
Вы можете скачивать файлы