Кинопанорама. Фрагменты передачи 1968-69 годов (Ксения Маринина) [1969, телепередача, кинематограф, DVB]


Статистика раздачи [Обновить пиров]
Размер:  1.62 GB   |    Зарегистрирован:  8 месяцев 21 день   |    Скачан:  0 раз

Полного источника не было: Никогда

Личеров:  3  [  0 KB/s  ]   Подробная статистика пиров
 
   
 
 
 

[Цитировать]

Кинопанорама
Фрагменты передачи 1968-69 годов- Год выпуска: 1969
Страна: СССР
Жанр: телепередача, кинематограф
Продолжительность: 00:45:32
Перевод: Не требуется
Русские субтитры: нет
Режиссер: Ксения МарининаВ ролях: Глория Свенсон, Марчелло Мастроянни, Леонид Куравлев, Инна Макарова, Роман Ткачук, Лариса Лужина, Валентин Смирницкий, Наталия Фатеева, Игорь Ледогоров, Андрей Миронов, Алла Демидова, Ефим Копелян, Юрий Никулин
Описание: Одна из самых любимых передач прошлого, на советском телевидении мало было таких программ, которые притягивали зрителя и не вызывали шквал ядовитой критики после ее окончания. Безусловно, интерес к ней был вызван тем, что она являлась путеводителем в мире большого кино – единственным путеводителем на телевидении, а, поскольку в стране фильмов снималось много, а по ТВ их показывали мало, походы в кинотеатр были излюбленным развлечением и времяпровождением граждан. Сейчас даже представить трудно – какие сумасшедшие очереди стояли в билетных кассах на премьерных показах новых фильмов, о которых уже заранее было известно, что они не могут не понравиться. И известно – как раз из "Кинопанорамы". (Вокруг ТВ)
В этом выпуске вам предлагаются фрагменты передач за 1968-69 годы: рабочие моменты съемок фильма "Адъютант его превосходительства"; актеры Леонид Куравлев, Инна Макарова, Роман Ткачук, Лариса Лужина, Валентин Смирницкий, Наталия Фатеева, Игорь Ледогоров, Андрей Миронов, Алла Демидова рассказывают о своих последних работах; Юрий Никулин о своей работе в кино и цирке; рабочие моменты съемок х/ф "Крах"; Ефим Копелян о кино и театре и фрагмент театральной постановки с его участием; сюжет о Всеволоде Мейерхольде; встреча в Москве со звездой немого кино Глорией Свенсон и Марчелло Мастроянни.
Доп. информация: запись со спутника (канал "Ностальгия"). Перевод интервью Глории Свенсон и Марчелло Мастроянни в виде вшитых русских субтитров.
Сэмпл: http://multi-up.com/875914
Качество: DVB
Формат: MPEG-PS (См. при проблемах с просмотром видео)
Видео кодек: MPEG2
Аудио кодек: MP2
Видео: MPEG Video 2, 720x576@768x576 (4:3), 25 fps, ~4800 kbps avg, 0.463 bit/pixel
Аудио: 48 kHz, MPEG Audio 2, 2 ch, ~192.00 kbps avg

MediaInfo

Полное имя                               : H:\My Torrents\[apreder]Kinopanorama(1968-1969)DVB.mpg
Формат : MPEG-PS
Размер файла : 1,62 Гбайт
Продолжительность : 45 м.
Режим общего битрейта : Переменный
Общий поток : 5093 Кбит/сек
Видео
Идентификатор : 224 (0xE0)
Формат : MPEG Video
Версия формата : Version 2
Профиль формата : Main@Main
Параметр BVOP формата : Да
Параметр матрицы формата : Выборочная
Параметр GOP формата : Variable
Продолжительность : 45 м.
Вид битрейта : Переменный
Битрейт : 4800 Кбит/сек
Ширина : 720 пикселей
Высота : 576 пикселей
Соотношение сторон : 4:3
Частота кадров : 25,000 кадров/сек
Стандарт вещания : PAL
Цветовое пространство : YUV
Субдискретизация насыщенности : 4:2:0
Битовая глубина : 8 бит
Тип развёртки : Чересстрочная
Порядок развёртки : Верхнее поле первое
Метод сжатия : С потерями
Бит/(Пиксели*Кадры) : 0.463
TimeCode_FirstFrame : 00:00:00:00
TimeCode_Source : Group of pictures header
Размер потока : 1,53 Гбайт (94%)
Аудио
Идентификатор : 192 (0xC0)
Формат : MPEG Audio
Версия формата : Version 1
Профиль формата : Layer 2
Продолжительность : 45 м.
Вид битрейта : Постоянный
Битрейт : 192 Кбит/сек
Каналы : 2 канала
Частота : 48,0 КГц
Метод сжатия : С потерями
Размер потока : 62,6 Мбайт (4%)

Скриншоты


Скриншоты анаморфированные


-797/779√
[teatrix.ru].t17151.torrent 
Торрент: Зарегистрирован [ 2016-03-17 00:52 ] · 55378D5010F71F48BC077FB6F24DD0EA9C6771E9

Скачать .torrent

Скачать

17 KB

Статус: проверено
Скачан: 0 раз
Размер: 1.62 GB
terms.php



Показать сообщения:    

Текущее время: 07-Дек 21:24

Часовой пояс: UTC + 3


Вы не можете начинать темы
Вы не можете отвечать на сообщения
Вы не можете редактировать свои сообщения
Вы не можете удалять свои сообщения
Вы не можете голосовать в опросах
Вы не можете прикреплять файлы к сообщениям
Вы можете скачивать файлы