(Opera Serenade) Gluck - Le Cinesi (Poulenard, Von Otter, Banditelli, De Mey - Jacobs 1986) - 1990, APE (image+.cue) lossless


 

[Цитировать]

Gluck - Le Cinesi (Poulenard, Von Otter, Banditelli, De Mey - Jacobs 1986)
Жанр: Opera Serenade
Страна-производитель диска: Germany
Год издания диска: 1990
Издатель (лейбл): Deutsche Harmonia Mundi
Номер по каталогу: GD77174
Дата записи: 1986
Аудиокодек: APE
Тип рипа: image+.cue
Битрейт аудио: lossless
Продолжительность: 56'33
Источник: собственный рип
Наличие сканов в содержимом раздачи: да
Треклист:
01. Sinfonia (Overture)
02. Rezitativo: E ben: Stupide e mute
03. Aria: Prenditi il figlio ... !
04. Rezitativo: Ah, non fimir si presto
05. Aria: Son lunghi e non mi brami
06. Rezitativo: Che vi par della scena?
07. Aria: Non sperar, non lusingart!
08. Rezitativo: Che amabil pastorella
09. Aria: Ad un riso, ad un'occhiata
10. Rezitativo: Che ti sembra, Silango
11. Quartetto: Voli il piede in lieti gir!
Исполнители:
CHRISTOPH WILLIBALD GLUCK (1714-1787) - LE CINESI
An Opera Serenade
ISABELLE POULENARD - Sivene
ANNE SOFIE VON OTTER - Lisinga
GLORIA BANDITELLI - Tangia
GUY DE MEY - Silango
ORCHESTRA OF THE SCHOLA CANTORUM BASILIENSIS
RENÉ JACOBS

Лог создания рипа

Exact Audio Copy V1.0 beta 3 from 29. August 2011
EAC extraction logfile from 16. June 2013, 9:28
Gluck / Les Chinoises, Jacobs 1986
Used drive : TSSTcorpCDDVDW SE-208AB Adapter: 1 ID: 0
Read mode : Secure
Utilize accurate stream : Yes
Defeat audio cache : Yes
Make use of C2 pointers : No
Read offset correction : 6
Overread into Lead-In and Lead-Out : No
Fill up missing offset samples with silence : Yes
Delete leading and trailing silent blocks : No
Null samples used in CRC calculations : Yes
Used interface : Native Win32 interface for Win NT & 2000
Used output format : Monkey's Audio Lossless Encoder
Selected bitrate : High Lossless Compression
Quality : High
Add ID3 tag : Yes
Command line compressor : K:\Program Files (x86)\Exact Audio Copy\Monkeys Audio\Monkey's Audio\MAC.exe
Additional command line options : -6 -V -T "ARTIST=%artist%" -T "TITLE=%title%" -T "ALBUM=%albumtitle%" -T "DATE=%year%" -T "TRACKNUMBER=%tracknr%" -T "GENRE=%genre%" -T "COMMENT=%comment%" -T "BAND=%albuminterpret%" -T "ALBUMARTIST=%albuminterpret%" -T "COMPOSER=%composer%" %haslyrics%--tag-from-file=LYRICS="%lyricsfile%"%haslyrics% -T "DISCNUMBER=%cdnumber%" -T "TOTALDISCS=%totalcds%" -T "TOTALTRACKS=%numtracks%" %hascover%--picture="%coverfile%"%hascover% %source% -o %dest%
TOC of the extracted CD
Track | Start | Length | Start sector | End sector
---------------------------------------------------------
1 | 0:00.32 | 5:57.15 | 32 | 26821
2 | 5:57.47 | 10:22.65 | 26822 | 73536
3 | 16:20.37 | 3:01.63 | 73537 | 87174
4 | 19:22.25 | 3:20.00 | 87175 | 102174
5 | 22:42.25 | 7:18.72 | 102175 | 135096
6 | 30:01.22 | 1:41.00 | 135097 | 142671
7 | 31:42.22 | 7:43.28 | 142672 | 177424
8 | 39:25.50 | 3:24.35 | 177425 | 192759
9 | 42:50.10 | 5:57.02 | 192760 | 219536
10 | 48:47.12 | 2:20.00 | 219537 | 230036
11 | 51:07.12 | 5:23.43 | 230037 | 254304
Range status and errors
Selected range
Filename I:\Foobar-EAC\Gluck - Les Chinoises, Jacobs 1986.wav
Peak level 96.9 %
Extraction speed 1.8 X
Range quality 99.9 %
Test CRC DCC930D0
Copy CRC DCC930D0
Copy OK
No errors occurred
AccurateRip summary
Track 1 accurately ripped (confidence 6) [D263B886] (AR v2)
Track 2 accurately ripped (confidence 6) [2C52F7F5] (AR v2)
Track 3 accurately ripped (confidence 6) [7EC03C78] (AR v2)
Track 4 accurately ripped (confidence 6) [A8A7BF59] (AR v2)
Track 5 accurately ripped (confidence 6) [25493229] (AR v2)
Track 6 accurately ripped (confidence 6) [29AD664A] (AR v2)
Track 7 accurately ripped (confidence 6) [F7C6D758] (AR v2)
Track 8 accurately ripped (confidence 6) [C466E2A2] (AR v2)
Track 9 accurately ripped (confidence 6) [7C980286] (AR v2)
Track 10 accurately ripped (confidence 6) [41E0C3C4] (AR v2)
Track 11 accurately ripped (confidence 6) [DA7B61FC] (AR v2)
All tracks accurately ripped
End of status report
==== Log checksum 6D341C451A967D87D17C8D71D214EFFEE06F810A4F93DE8D67F1BFA3702BCAD2 ====

Содержание индексной карты (.CUE)

REM GENRE Opera
REM DATE 1986
REM DISCID A40D3E0B
REM COMMENT "ExactAudioCopy v1.0b3"
PERFORMER "Gluck"
TITLE "Les Chinoises, Jacobs 1986"
FILE "Gluck - Les Chinoises, Jacobs 1986.ape" WAVE
TRACK 01 AUDIO
TITLE "Sinfonia (Overture)"
PERFORMER "Gluck"
INDEX 00 00:00:00
INDEX 01 00:00:32
TRACK 02 AUDIO
TITLE "Rezitativo: E ben: Stupide e mute"
PERFORMER "Gluck"
INDEX 00 05:57:45
INDEX 01 05:57:47
TRACK 03 AUDIO
TITLE "Aria: Prenditi il figlio ...!"
PERFORMER "Gluck"
INDEX 00 16:20:35
INDEX 01 16:20:37
TRACK 04 AUDIO
TITLE "Rezitativo: Ah, non firnir sì presto"
PERFORMER "Gluck"
INDEX 00 19:22:22
INDEX 01 19:22:25
TRACK 05 AUDIO
TITLE "Aria: Son lunghi e non mi brami"
PERFORMER "Gluck"
INDEX 00 22:42:22
INDEX 01 22:42:25
TRACK 06 AUDIO
TITLE "Rezitativo: Che vi par della scena ¿"
PERFORMER "Gluck"
INDEX 00 30:01:20
INDEX 01 30:01:22
TRACK 07 AUDIO
TITLE "Aria: Non seperar, non lusingarti"
PERFORMER "Gluck"
INDEX 00 31:42:20
INDEX 01 31:42:22
TRACK 08 AUDIO
TITLE "Rezitativo: Che amabil pastorella!"
PERFORMER "Gluck"
INDEX 00 39:25:47
INDEX 01 39:25:50
TRACK 09 AUDIO
TITLE "Aria: Ad un riso, ad un'occhiata"
PERFORMER "Gluck"
INDEX 00 42:50:07
INDEX 01 42:50:10
TRACK 10 AUDIO
TITLE "Rezitativo: Che ti sembra, Silango"
PERFORMER "Gluck"
INDEX 00 48:47:10
INDEX 01 48:47:12
TRACK 11 AUDIO
TITLE "Quarttetto: Voli il piede in lieti giri"
PERFORMER "Gluck"
INDEX 00 51:07:10
INDEX 01 51:07:12



Показать сообщения:    

Текущее время: 03-Дек 16:43

Часовой пояс: UTC + 3


Вы не можете начинать темы
Вы не можете отвечать на сообщения
Вы не можете редактировать свои сообщения
Вы не можете удалять свои сообщения
Вы не можете голосовать в опросах
Вы не можете прикреплять файлы к сообщениям
Вы не можете скачивать файлы