(Song) Endechar: Lament for Spain - Sephardic Romances and Songs - Capilla Antigua de Chinchilla, Jose Ferrero - 2010, FLAC (image+.cue) lossless


 

[Цитировать]

Endechar: Lament for Spain - Sephardic Romances and Songs - Capilla Antigua de Chinchilla, José Ferrero
Жанр: Song
Год издания диска: 2010
Издатель (лейбл): Naxos
Номер по каталогу: 8.572443
Дата записи: 2009
Аудиокодек: FLAC
Тип рипа: image+.cue
Битрейт аудио: lossless
Продолжительность: 57:31
Источник: собственный рип
Наличие сканов в содержимом раздачи: да
Треклист:
[1] Arvolicos d'almendra
[2] Hija mía mi querida
[3] Esta montaña d'enfrente
[4] Una matica de ruda
[5] Muerte que a todos convidas
[6] Por qué llorax blanca nina?
[7] Ven querida
[8] Cuatro años d'amor
[9] Ya crecen las hierbas
[10] Paxaro de hermosura
[11] Nani, nani
[12] En la mar hay una torre
[13] Calvi arabi - Kol libi - Rey don Alfonso
[14] Durme, durme hermozo hijico
[15] Avrix mi galanica
[16] El rey Nimrod
Исполнители:
Capilla Antigua de Chinchilla
José Ferrero
director

Лог создания рипа

Exact Audio Copy V1.0 beta 3 from 29. August 2011
EAC extraction logfile from 2. June 2013, 13:06
Capilla Antigua de Chinchilla, Jose Ferrero / Endechar - Lament for Spain
Used drive : HL-DT-STDVDRAM GSA-4083N Adapter: 1 ID: 0
Read mode : Secure
Utilize accurate stream : Yes
Defeat audio cache : Yes
Make use of C2 pointers : No
Read offset correction : 667
Overread into Lead-In and Lead-Out : No
Fill up missing offset samples with silence : Yes
Delete leading and trailing silent blocks : No
Null samples used in CRC calculations : Yes
Used interface : Native Win32 interface for Win NT & 2000
Used output format : User Defined Encoder
Selected bitrate : 896 kBit/s
Quality : High
Add ID3 tag : No
Command line compressor : C:\Program Files\Exact Audio Copy\Flac\flac.exe
Additional command line options : -V -8 %source%
TOC of the extracted CD
Track | Start | Length | Start sector | End sector
---------------------------------------------------------
1 | 0:00.00 | 2:51.22 | 0 | 12846
2 | 2:51.22 | 3:18.22 | 12847 | 27718
3 | 6:09.44 | 4:58.60 | 27719 | 50128
4 | 11:08.29 | 4:26.53 | 50129 | 70131
5 | 15:35.07 | 5:44.48 | 70132 | 95979
6 | 21:19.55 | 2:27.73 | 95980 | 107077
7 | 23:47.53 | 3:17.62 | 107078 | 121914
8 | 27:05.40 | 2:45.67 | 121915 | 134356
9 | 29:51.32 | 2:33.11 | 134357 | 145842
10 | 32:24.43 | 2:52.09 | 145843 | 158751
11 | 35:16.52 | 4:07.35 | 158752 | 177311
12 | 39:24.12 | 4:30.73 | 177312 | 197634
13 | 43:55.10 | 3:03.69 | 197635 | 211428
14 | 46:59.04 | 3:41.24 | 211429 | 228027
15 | 50:40.28 | 2:50.70 | 228028 | 240847
16 | 53:31.23 | 3:57.52 | 240848 | 258674
Range status and errors
Selected range
Filename J:\New Music\Endechar - Lament for Spain\Endechar - Lament for Spain.wav
Peak level 100.0 %
Extraction speed 4.2 X
Range quality 100.0 %
Test CRC C23EE43A
Copy CRC C23EE43A
Copy OK
No errors occurred
End of status report
==== Log checksum 40C390D932B8C19DDCA08167C1DCEFDEA2C946F43DDD3C1ED9B44A6B66B1C854 ====



Показать сообщения:    

Текущее время: 08-Дек 12:56

Часовой пояс: UTC + 3


Вы не можете начинать темы
Вы не можете отвечать на сообщения
Вы не можете редактировать свои сообщения
Вы не можете удалять свои сообщения
Вы не можете голосовать в опросах
Вы не можете прикреплять файлы к сообщениям
Вы не можете скачивать файлы