Карнавал цветов (Николай Экк) [1935, Документальный, искусство, DVDSCR]


Статистика раздачи [Обновить пиров]
Размер:  646 MB   |    Зарегистрирован:  8 месяцев 17 дней   |    Скачан:  0 раз

Полного источника не было: Никогда

Личеров:  3  [  0 KB/s  ]   Подробная статистика пиров
 
   
 
 
 

[Цитировать]

Карнавал цветов
Год выпуска: 1935
Страна: СССР, производство: Межрабпомфильм
Жанр: Документальный, искусство
Продолжительность: 00:42:52
Перевод: Не требуется
Режиссер: Николай Экк

Описание: Экспериментальная работа, состоит из нескольких фрагментов, демонстрирующих использование цвета в кино: показ полотен советского изобразительного искусства, съемки первомайских парадов на Красной площади в 1934—1935 годах, съемка рабочей самодеятельности и кино-очерк о Советской Грузии.
Доп. информация: Релиз:
Рип: pmv
Исходный материал предоставил некто Андрей.
Сэмпл: http://multi-up.com/876698
качество: DVDSCR
формат: AVI
Видео: 720x536 (1.34:1), 25 fps, XviD build 50 ~1999 kbps avg, 0.21 bit/pixel
Аудио: 48 kHz, MPEG Layer 3, 1 ch, ~96.00 kbps avg

MediaInfo

Общее
Полное имя : H:\ФИЛЬМЫ С ФЕНИКСА\Карнавал цветов (1935).avi
Формат : AVI
Формат/Информация : Audio Video Interleave
Размер файла : 646 Мбайт
Продолжительность : 42 м.
Общий поток : 2106 Кбит/сек
Программа кодирования : VirtualDubMod 1.5.10.3 | www.virtualdub-fr.org || (build 2550/release)
Библиотека кодирования : VirtualDubMod build 2550/release
Видео
Идентификатор : 0
Формат : MPEG-4 Visual
Профиль формата : Advanced Simple@L5
Параметр BVOP формата : 3
Параметр QPel формата : Нет
Параметр GMC формата : Без точки перехода
Параметр матрицы формата : Default (H.263)
Идентификатор кодека : XVID
Идентификатор кодека/Подсказка : XviD
Продолжительность : 42 м.
Битрейт : 2000 Кбит/сек
Ширина : 720 пикселей
Высота : 536 пикселей
Соотношение сторон : 4:3
Частота кадров : 25,000 кадров/сек
Цветовое пространство : YUV
Субдискретизация насыщенности : 4:2:0
Битовая глубина : 8 бит
Тип развёртки : Прогрессивная
Метод сжатия : С потерями
Бит/(Пиксели*Кадры) : 0.207
Размер потока : 613 Мбайт (95%)
Библиотека кодирования : XviD 1.2.1 (UTC 2008-12-04)
Аудио
Идентификатор : 1
Формат : MPEG Audio
Версия формата : Version 1
Профиль формата : Layer 3
Идентификатор кодека : 55
Идентификатор кодека/Подсказка : MP3
Продолжительность : 42 м.
Вид битрейта : Постоянный
Битрейт : 96,0 Кбит/сек
Каналы : 1 канал
Частота : 48,0 КГц
Метод сжатия : С потерями
Размер потока : 29,4 Мбайт (5%)
Выравнивание : Соединение по промежуткам
Продолжительность промежутка : 40 мс. (1,00 видеокадр)
Время предзагрузки промежутка : 504 мс.

Скриншоты


[teatrix.ru].t17157.torrent 
Торрент: Зарегистрирован [ 2016-03-17 00:52 ] · C4ADBDCFD4873C42AD6519AAE441F0E6C04BFA9C

Скачать .torrent

Скачать

13 KB

Статус: проверено
Скачан: 0 раз
Размер: 646 MB
terms.php



Показать сообщения:    

Текущее время: 03-Дек 16:46

Часовой пояс: UTC + 3


Вы не можете начинать темы
Вы не можете отвечать на сообщения
Вы не можете редактировать свои сообщения
Вы не можете удалять свои сообщения
Вы не можете голосовать в опросах
Вы не можете прикреплять файлы к сообщениям
Вы можете скачивать файлы