(Songs) Charles Gounod - Songs by Gounod (Felicity Lott, Ann Murray, Anthony Rolfe Johnson - Graham Johnson) 2 CD - 1993, FLAC (image+.cue) lossless


 

[Цитировать]

Charles Gounod - Songs by Gounod (Felicity Lott, Ann Murray, Anthony Rolfe Johnson - Graham Johnson) 2 CD - 1993
Жанр: Songs
Страна-производитель диска: England
Год издания диска: 1993
Издатель (лейбл): Hyperion Records Ltd.
Номер по каталогу: 66801/2
Дата записи: 1993
Аудиокодек: FLAC
Тип рипа: image+.cue
Битрейт аудио: lossless
Продолжительность: 1 CD: 70 мин; 2 CD: 66 мин
Источник: скачано с сайта Odeon
Наличие сканов в содержимом раздачи: да
Треклист:
CD 1
01. O voulez-vouz aller ('Barcarole') (Theophile Gautier)
02. Le soir (Alphonse de Lamartine)
03. Venise (Alfred de Musset)
04. Ave Maria (Latin text)
05. Serenade (Victor Hugo)
06. Chanson de printemps (Eugene Tourneux)
07. Au rossignol (Alphonse de Lamartine)
08. Ce que je suis sans toi (Louis de Peyre)
09. Envoi de fleurs (Emile Augier)
10. La paquerette (Alexandre Dumas fils)
11. Bolero (Jules Barbier)
12. Mignon (Louis Gallet, after Goethe)
13. Reverie (Jules Barbier)
14. Ma belle amie est morte (Theophile Gautier)
15. Loin du pays (Charles Gounod)
16. Clos ta paupiere (Jules Barbier)
17. Priere (Armand Sully Prudhomme)
18. L'absent (Charles Gounod)
19. Le temps des roses (Camille Roy)
CD 2
Biondina, song cycle for voice & piano - Giuseppe Zaffira; trad. Richard Stokes
01. Biondina, song cycle for voice & piano- Prologo- Da qualche tempo
02. Biondina, song cycle for voice & piano- Biondina bella
03. Biondina, song cycle for voice & piano- Sotto un cappello rosa
04. Biondina, song cycle for voice & piano- Le labra ella compose
05. Biondina, song cycle for voice & piano- E stati alquanto
06. Biondina, song cycle for voice & piano- Ho messo nuove corde
07. Biondina, song cycle for voice & piano- e come to son poeta
08. Biondina, song cycle for voice & piano- Siam iti l' altro giorno
09. Biondina, song cycle for voice & piano- E le compane hanno suonato
10. Biondina, song cycle for voice & piano- Ell'e malata
11. Biondina, song cycle for voice & piano- Ier fu mandata
12. Biondina, song cycle for voice & piano- L 'ho accompagnato
13. The Worker (Frederick Weatherley)
14. A Lay of the Early Spring (Horace Smith)
15. My true love hath my heart (New Part Songs, first series, No. 5) (Sir Philip Sydney)
16. Oh happy home! (Edward Maitland)
17. The fountain mingles with the river (Percy Bysshe Shellei)
18. Maid of Athens (Lord Byron)
19. Beware - I know a maiden (Henry Longfellow)
20. The Arrow and the Song (Lord Houghton)
21. Ilala - stances à la mémoire de Livingston (Henry Longfellow)
22. If thou art sleeping (Henry Longfellow)
Исполнители:
CD 1:
Ann Murray (mezzo-soprano) 4, 5, 7, 10, 11, 14, 15, 17
Felicity Lott (soprano) 1, 2, 3, 6, 8, 9, 12, 13, 16, 18, 19
Graham Johnson (piano)
CD 2
Anthony Rolfe Johnson (tenor) 1 - 14, 16, 18, 21, 22
Ann Murray (mezzo-soprano) 15, 20
Felicity Lott (soprano) 17, 19
Graham Johnson (piano)

Лог создания рипа CD 1

Exact Audio Copy V1.0 beta 3 from 29. August 2011
EAC extraction logfile from 10. June 2013, 19:23
Various Artists / Gounod - Songs - Felicity Lott, Ann Murray (Disc 1)
Used drive : TSSTcorpCDDVDW SH-222BB Adapter: 2 ID: 1
Read mode : Secure
Utilize accurate stream : Yes
Defeat audio cache : Yes
Make use of C2 pointers : No
Read offset correction : 6
Overread into Lead-In and Lead-Out : No
Fill up missing offset samples with silence : Yes
Delete leading and trailing silent blocks : No
Null samples used in CRC calculations : Yes
Used interface : Native Win32 interface for Win NT & 2000
Used output format : User Defined Encoder
Selected bitrate : 1024 kBit/s
Quality : High
Add ID3 tag : No
Command line compressor : C:\Program Files\Exact Audio Copy\Flac\flac.exe
Additional command line options : -8 -V -T "TITLE=%title%" -T "ARTIST=%artist%" -T "ALBUMARTIST=%albumartist%" -T "ALBUM=%albumtitle%" -T "DATE=%year%" -T "TRACKNUMBER=%tracknr%" -T "TRACKTOTAL=%numtracks%" -T "GENRE=%genre%" -T "COMMENT=%comment%" -T "PERFORMER=%albuminterpret%" -T "COMPOSER=%composer%" %source% -o %dest%
TOC of the extracted CD
Track | Start | Length | Start sector | End sector
---------------------------------------------------------
1 | 0:00.00 | 3:49.62 | 0 | 17236
2 | 3:49.62 | 5:07.20 | 17237 | 40281
3 | 8:57.07 | 4:34.60 | 40282 | 60891
4 | 13:31.67 | 2:59.23 | 60892 | 74339
5 | 16:31.15 | 4:29.45 | 74340 | 94559
6 | 21:00.60 | 3:55.40 | 94560 | 112224
7 | 24:56.25 | 7:03.17 | 112225 | 143966
8 | 31:59.42 | 3:26.65 | 143967 | 159481
9 | 35:26.32 | 2:22.20 | 159482 | 170151
10 | 37:48.52 | 2:03.60 | 170152 | 179436
11 | 39:52.37 | 3:33.20 | 179437 | 195431
12 | 43:25.57 | 3:47.30 | 195432 | 212486
13 | 47:13.12 | 2:47.45 | 212487 | 225056
14 | 50:00.57 | 3:29.48 | 225057 | 240779
15 | 53:30.30 | 2:08.30 | 240780 | 250409
16 | 55:38.60 | 3:49.40 | 250410 | 267624
17 | 59:28.25 | 3:05.00 | 267625 | 281499
18 | 62:33.25 | 4:09.55 | 281500 | 300229
19 | 66:43.05 | 3:08.70 | 300230 | 314399
Range status and errors
Selected range
Filename G:\Ripped general\[2191] Gounod – Songs – Felicity Lott, Ann Murray\cd1\Gounod - Songs - Felicity Lott, Ann Murray (Disc 1).wav
Peak level 100.0 %
Extraction speed 7.8 X
Range quality 100.0 %
Test CRC 3FE5186D
Copy CRC 3FE5186D
Copy OK
No errors occurred
AccurateRip summary
Track 1 cannot be verified as accurate (confidence 2) [EF335E66], AccurateRip returned [BD536D4A] (AR v2)
Track 2 cannot be verified as accurate (confidence 2) [5C6201E0], AccurateRip returned [7AD2A6F3] (AR v2)
Track 3 cannot be verified as accurate (confidence 2) [F191C57B], AccurateRip returned [CDFBFA89] (AR v2)
Track 4 cannot be verified as accurate (confidence 2) [C43BFB1E], AccurateRip returned [3D2374FA] (AR v2)
Track 5 cannot be verified as accurate (confidence 2) [5272E229], AccurateRip returned [396BB951] (AR v2)
Track 6 cannot be verified as accurate (confidence 2) [2404C6A8], AccurateRip returned [CE7A7B8A] (AR v2)
Track 7 cannot be verified as accurate (confidence 2) [EA800A95], AccurateRip returned [598D645A] (AR v2)
Track 8 cannot be verified as accurate (confidence 2) [F78C2DBC], AccurateRip returned [5A2946B2] (AR v2)
Track 9 cannot be verified as accurate (confidence 2) [E0A62D98], AccurateRip returned [C221B9A2] (AR v2)
Track 10 cannot be verified as accurate (confidence 2) [1DA2EC5F], AccurateRip returned [9108DF32] (AR v2)
Track 11 cannot be verified as accurate (confidence 2) [0FB4162D], AccurateRip returned [8C9CAB63] (AR v2)
Track 12 cannot be verified as accurate (confidence 2) [8F1CC4B2], AccurateRip returned [7F36D3C8] (AR v2)
Track 13 cannot be verified as accurate (confidence 2) [A2C554E3], AccurateRip returned [DB6D4280] (AR v2)
Track 14 cannot be verified as accurate (confidence 2) [C8A0A20E], AccurateRip returned [55953535] (AR v2)
Track 15 cannot be verified as accurate (confidence 2) [7E39A103], AccurateRip returned [5DC6523E] (AR v2)
Track 16 cannot be verified as accurate (confidence 2) [E59D449B], AccurateRip returned [0EE6DC1B] (AR v2)
Track 17 cannot be verified as accurate (confidence 2) [EB3801FF], AccurateRip returned [DE704379] (AR v2)
Track 18 cannot be verified as accurate (confidence 2) [09BBFDF7], AccurateRip returned [A9B12DF7] (AR v2)
Track 19 cannot be verified as accurate (confidence 2) [9556B9F0], AccurateRip returned [FCD89E30] (AR v2)
No tracks could be verified as accurate
You may have a different pressing from the one(s) in the database
End of status report

Лог создания рипа CD 2

Exact Audio Copy V1.0 beta 3 from 29. August 2011
EAC extraction logfile from 10. June 2013, 20:36
Various Artists / Gounod - Songs - Felicity Lott, Ann Murray (Disc 2)
Used drive : TSSTcorpCDDVDW SH-222BB Adapter: 2 ID: 1
Read mode : Secure
Utilize accurate stream : Yes
Defeat audio cache : Yes
Make use of C2 pointers : No
Read offset correction : 6
Overread into Lead-In and Lead-Out : No
Fill up missing offset samples with silence : Yes
Delete leading and trailing silent blocks : No
Null samples used in CRC calculations : Yes
Used interface : Native Win32 interface for Win NT & 2000
Used output format : User Defined Encoder
Selected bitrate : 1024 kBit/s
Quality : High
Add ID3 tag : No
Command line compressor : C:\Program Files\Exact Audio Copy\Flac\flac.exe
Additional command line options : -8 -V -T "TITLE=%title%" -T "ARTIST=%artist%" -T "ALBUMARTIST=%albumartist%" -T "ALBUM=%albumtitle%" -T "DATE=%year%" -T "TRACKNUMBER=%tracknr%" -T "TRACKTOTAL=%numtracks%" -T "GENRE=%genre%" -T "COMMENT=%comment%" -T "PERFORMER=%albuminterpret%" -T "COMPOSER=%composer%" %source% -o %dest%
TOC of the extracted CD
Track | Start | Length | Start sector | End sector
---------------------------------------------------------
1 | 0:00.00 | 2:01.45 | 0 | 9119
2 | 2:01.45 | 4:13.00 | 9120 | 28094
3 | 6:14.45 | 2:34.42 | 28095 | 39686
4 | 8:49.12 | 3:18.50 | 39687 | 54586
5 | 12:07.62 | 1:53.48 | 54587 | 63109
6 | 14:01.35 | 1:51.05 | 63110 | 71439
7 | 15:52.40 | 3:17.50 | 71440 | 86264
8 | 19:10.15 | 1:51.27 | 86265 | 94616
9 | 21:01.42 | 3:11.73 | 94617 | 109014
10 | 24:13.40 | 3:36.05 | 109015 | 125219
11 | 27:49.45 | 3:21.70 | 125220 | 140364
12 | 31:11.40 | 4:08.60 | 140365 | 159024
13 | 35:20.25 | 5:06.02 | 159025 | 181976
14 | 40:26.27 | 2:49.48 | 181977 | 194699
15 | 43:16.00 | 1:58.50 | 194700 | 203599
16 | 45:14.50 | 4:37.55 | 203600 | 224429
17 | 49:52.30 | 1:34.15 | 224430 | 231494
18 | 51:26.45 | 4:08.72 | 231495 | 250166
19 | 55:35.42 | 1:57.60 | 250167 | 259001
20 | 57:33.27 | 2:29.10 | 259002 | 270186
21 | 60:02.37 | 5:06.33 | 270187 | 293169
22 | 65:08.70 | 1:21.05 | 293170 | 299249
Range status and errors
Selected range
Filename G:\Ripped general\[2191] Gounod – Songs – Felicity Lott, Ann Murray\cd2\Gounod - Songs - Felicity Lott, Ann Murray (Disc 2).wav
Peak level 74.1 %
Extraction speed 6.2 X
Range quality 99.9 %
Test CRC 368C9BDD
Copy CRC 368C9BDD
Copy OK
No errors occurred
AccurateRip summary
Track 1 cannot be verified as accurate (confidence 2) [7FF4D481], AccurateRip returned [CB6B81B5] (AR v2)
Track 2 cannot be verified as accurate (confidence 2) [82DA6F80], AccurateRip returned [1CF57E87] (AR v2)
Track 3 cannot be verified as accurate (confidence 2) [D70A7CD6], AccurateRip returned [1C6046B9] (AR v2)
Track 4 cannot be verified as accurate (confidence 2) [A08F8D27], AccurateRip returned [05B68F71] (AR v2)
Track 5 cannot be verified as accurate (confidence 2) [A5244AB4], AccurateRip returned [8E1CA920] (AR v2)
Track 6 cannot be verified as accurate (confidence 2) [68C6FAEA], AccurateRip returned [BEACA279] (AR v2)
Track 7 cannot be verified as accurate (confidence 2) [E1D30B58], AccurateRip returned [938F6800] (AR v2)
Track 8 cannot be verified as accurate (confidence 2) [CCDAAF71], AccurateRip returned [24457721] (AR v2)
Track 9 cannot be verified as accurate (confidence 2) [2576A808], AccurateRip returned [1E8F6C03] (AR v2)
Track 10 cannot be verified as accurate (confidence 2) [E3C66B64], AccurateRip returned [9F3CE7DD] (AR v2)
Track 11 cannot be verified as accurate (confidence 2) [5D1A7C96], AccurateRip returned [DED9EED6] (AR v2)
Track 12 cannot be verified as accurate (confidence 2) [176EFA65], AccurateRip returned [137EA836] (AR v2)
Track 13 cannot be verified as accurate (confidence 2) [5DB6AF63], AccurateRip returned [6F6A65EB] (AR v2)
Track 14 cannot be verified as accurate (confidence 2) [45EC1EA8], AccurateRip returned [8465F36F] (AR v2)
Track 15 cannot be verified as accurate (confidence 2) [E08800FB], AccurateRip returned [3771C960] (AR v2)
Track 16 cannot be verified as accurate (confidence 2) [71877929], AccurateRip returned [9347DAA9] (AR v2)
Track 17 cannot be verified as accurate (confidence 2) [43E4AE90], AccurateRip returned [AB865199] (AR v2)
Track 18 cannot be verified as accurate (confidence 2) [F3708A91], AccurateRip returned [E823BB6A] (AR v2)
Track 19 cannot be verified as accurate (confidence 2) [B7FA5EB7], AccurateRip returned [B40A38DD] (AR v2)
Track 20 cannot be verified as accurate (confidence 2) [8085CEE3], AccurateRip returned [5490C13A] (AR v2)
Track 21 cannot be verified as accurate (confidence 2) [61C50084], AccurateRip returned [8AE2D3B1] (AR v2)
Track 22 cannot be verified as accurate (confidence 2) [287370D4], AccurateRip returned [45729531] (AR v2)
No tracks could be verified as accurate
You may have a different pressing from the one(s) in the database
End of status report

Содержание индексной карты (.CUE) CD 1

REM GENRE Classical
REM DATE 1993
REM DISCID F6106013
REM COMMENT "ExactAudioCopy v1.0b3"
PERFORMER "Various Artists"
TITLE "Gounod - Songs - Felicity Lott, Ann Murray (Disc 1)"
FILE "Gounod - Songs - Felicity Lott, Ann Murray (Disc 1).flac" WAVE
TRACK 01 AUDIO
TITLE "O voulez-vouz aller ('Barcarole') (Thophile Gautier)"
PERFORMER "Various Artists"
INDEX 01 00:00:00
TRACK 02 AUDIO
TITLE "Le soir (Alphonse de Lamartine)"
PERFORMER "Various Artists"
INDEX 01 03:49:62
TRACK 03 AUDIO
TITLE "Venise (Alfred de Musset)"
PERFORMER "Various Artists"
INDEX 01 08:57:07
TRACK 04 AUDIO
TITLE "Ave Maria (Latin text)"
PERFORMER "Various Artists"
INDEX 01 13:31:67
TRACK 05 AUDIO
TITLE "Srnade (Victor Hugo)"
PERFORMER "Various Artists"
INDEX 01 16:31:15
TRACK 06 AUDIO
TITLE "Chanson de printemps (Eugne Tourneux)"
PERFORMER "Various Artists"
INDEX 01 21:00:60
TRACK 07 AUDIO
TITLE "Au rossignol (Alphonse de Lamartine)"
PERFORMER "Various Artists"
INDEX 01 24:56:25
TRACK 08 AUDIO
TITLE "Ce que je suis sans toi (Louis de Peyre)"
PERFORMER "Various Artists"
INDEX 01 31:59:42
TRACK 09 AUDIO
TITLE "Envoi de fleurs (Emile Augier)"
PERFORMER "Various Artists"
INDEX 01 35:26:32
TRACK 10 AUDIO
TITLE "La pquerette (Alexandre Dumas fils)"
PERFORMER "Various Artists"
INDEX 01 37:48:52
TRACK 11 AUDIO
TITLE "Bolro (Jules Barbier)"
PERFORMER "Various Artists"
INDEX 01 39:52:37
TRACK 12 AUDIO
TITLE "Mignon (Louis Gallet, after Goethe)"
PERFORMER "Various Artists"
INDEX 01 43:25:57
TRACK 13 AUDIO
TITLE "Rverie (Jules Barbier)"
PERFORMER "Various Artists"
INDEX 01 47:13:12
TRACK 14 AUDIO
TITLE "Ma belle amie est morte (Thophile Gautier)"
PERFORMER "Various Artists"
INDEX 01 50:00:57
TRACK 15 AUDIO
TITLE "Loin du pays (Charles Gounod)"
PERFORMER "Various Artists"
INDEX 01 53:30:30
TRACK 16 AUDIO
TITLE "Clos ta paupire (Jules Barbier)"
PERFORMER "Various Artists"
INDEX 01 55:38:60
TRACK 17 AUDIO
TITLE "Prire (Armand Sully Prudhomme)"
PERFORMER "Various Artists"
INDEX 01 59:28:25
TRACK 18 AUDIO
TITLE "L'absent (Charles Gounod)"
PERFORMER "Various Artists"
INDEX 01 62:33:25
TRACK 19 AUDIO
TITLE "Le temps des roses (Camille Roy)"
PERFORMER "Various Artists"
INDEX 01 66:43:05

Содержание индексной карты (.CUE) CD 2

REM GENRE Classical
REM DATE 1993
REM DISCID 400F9616
REM COMMENT "ExactAudioCopy v1.0b3"
PERFORMER "Various Artists"
TITLE "Gounod - Songs - Felicity Lott, Ann Murray (Disc 2)"
FILE "Gounod - Songs - Felicity Lott, Ann Murray (Disc 2).flac" WAVE
TRACK 01 AUDIO
TITLE "Biondina, song cycle for voice & piano- Prologo- Da qualche tempo"
PERFORMER "Anthony Rolfe Johnson"
INDEX 01 00:00:00
TRACK 02 AUDIO
TITLE "Biondina, song cycle for voice & piano- Biondina bella"
PERFORMER "Anthony Rolfe Johnson"
INDEX 01 02:01:45
TRACK 03 AUDIO
TITLE "Biondina, song cycle for voice & piano- Sotto un cappello rosa"
PERFORMER "Anthony Rolfe Johnson"
INDEX 01 06:14:45
TRACK 04 AUDIO
TITLE "Biondina, song cycle for voice & piano- Le labra ella compose"
PERFORMER "Anthony Rolfe Johnson"
INDEX 01 08:49:12
TRACK 05 AUDIO
TITLE "Biondina, song cycle for voice & piano- E stati alquanto"
PERFORMER "Anthony Rolfe Johnson"
INDEX 01 12:07:62
TRACK 06 AUDIO
TITLE "Biondina, song cycle for voice & piano- Ho messo nuove corde"
PERFORMER "Anthony Rolfe Johnson"
INDEX 01 14:01:35
TRACK 07 AUDIO
TITLE "Biondina, song cycle for voice & piano- e come to son poeta"
PERFORMER "Anthony Rolfe Johnson"
INDEX 01 15:52:40
TRACK 08 AUDIO
TITLE "Biondina, song cycle for voice & piano- Siam iti l' altro giorno"
PERFORMER "Anthony Rolfe Johnson"
INDEX 01 19:10:15
TRACK 09 AUDIO
TITLE "Biondina, song cycle for voice & piano- E le compane hanno suonato"
PERFORMER "Anthony Rolfe Johnson"
INDEX 01 21:01:42
TRACK 10 AUDIO
TITLE "Biondina, song cycle for voice & piano- Ell'e malata"
PERFORMER "Anthony Rolfe Johnson"
INDEX 01 24:13:40
TRACK 11 AUDIO
TITLE "Biondina, song cycle for voice & piano- Ier fu mandata"
PERFORMER "Anthony Rolfe Johnson"
INDEX 01 27:49:45
TRACK 12 AUDIO
TITLE "Biondina, song cycle for voice & piano- L 'ho accompagnato"
PERFORMER "Anthony Rolfe Johnson"
INDEX 01 31:11:40
TRACK 13 AUDIO
TITLE "The Worker, song for voice & piano (or orchestra)"
PERFORMER "Anthony Rolfe Johnson"
INDEX 00 35:15:25
INDEX 01 35:20:25
TRACK 14 AUDIO
TITLE "A Lay of the Early Spring, song for voice & piano"
PERFORMER "Anthony Rolfe Johnson"
INDEX 01 40:26:27
TRACK 15 AUDIO
TITLE "My true love hath my heart, for chorus & piano (or voice & piano; New Part So..."
PERFORMER "Graham Johnson"
INDEX 01 43:16:00
TRACK 16 AUDIO
TITLE "Oh happy home!, song for voice & piano (or orchestra)"
PERFORMER "Anthony Rolfe Johnson"
INDEX 01 45:14:50
TRACK 17 AUDIO
TITLE "The fountain mingles with the river, song for voice & piano"
PERFORMER "Graham Johnson"
INDEX 01 49:52:30
TRACK 18 AUDIO
TITLE "Maid of Athens, song for voice & piano"
PERFORMER "Anthony Rolfe Johnson"
INDEX 01 51:26:45
TRACK 19 AUDIO
TITLE "Beware- I know a maiden, song for voice & piano"
PERFORMER "Graham Johnson"
INDEX 01 55:35:42
TRACK 20 AUDIO
TITLE "The Arrow and the Song, for voice & piano"
PERFORMER "Graham Johnson"
INDEX 01 57:33:27
TRACK 21 AUDIO
TITLE "Ilala- stances а la mйmoire de Livingston, song for voice & piano or orchestra"
PERFORMER "Anthony Rolfe Johnson"
INDEX 01 60:02:37
TRACK 22 AUDIO
TITLE "If thou art sleeping, song for voice & piano"
PERFORMER "Anthony Rolfe Johnson"
INDEX 01 65:08:70
На 1-ом диске представлены песни Ш.Гуно на стихи французских поэтов, на втором - песни на стихи английских поэтов и песенный цикл Biondina на стихи Джузеппе Зафира в переводе на английский язык Ричарда Стоукса (первый перевод этого цикла был сделан Жюлем Барбье на французский язык).
Дополнительная информация:
Песни Шуберта Schubert - The Songmakers' Almanac Schubertiade в исполнении Felicity Lott, Ann Murray, Anthony Rolfe Johnson, Richard Jackson, аккомпонирует Graham Johnson находятся здесь http://teatrix.ru/viewtopic.php?t=3814938.
Песни Бизе Bizet - Songs в исполнении Ann Murray, аккомпонирует Graham Johnson находятся здесь http://teatrix.ru/viewtopic.php?t=4359774.



Показать сообщения:    

Текущее время: 09-Дек 16:36

Часовой пояс: UTC + 3


Вы не можете начинать темы
Вы не можете отвечать на сообщения
Вы не можете редактировать свои сообщения
Вы не можете удалять свои сообщения
Вы не можете голосовать в опросах
Вы не можете прикреплять файлы к сообщениям
Вы не можете скачивать файлы