(Vocal/Incidental Music) Прокофьев - Гамлет & Борис Годунов (Домашенко, Калбус, Котчиниан - Юровский 2003) / Prokofiev - Hamlet & Boris Godunov (Domaschenko, Sawaley, Swatenko, Kalbus, Kotchinian - Jurowski 2003, APE (image+.cue) lossless


 

[Цитировать]

Prokofiev - Hamlet & Boris Godunov(Domaschenko, Sawaley, Swatenko, Kalbus, Kotchinian - Jurowski 2003)
Жанр: Vocal/Incidental Music
Страна-производитель диска: Germany
Год издания диска: 2003
Издатель (лейбл): Capriccio
Номер по каталогу: 67058
Дата записи: 2003
Аудиокодек: APE
Тип рипа: image+.cue
Битрейт аудио: lossless
Продолжительность: 57'15
Источник: собственный рип
Наличие сканов в содержимом раздачи: да
Треклист:
01 Hamlet - Der Geist von Hamlets Vater
02 Marsch des Claudius
03 Fanfaren, Pantomime, Fanfaren
04 Erstes Lied der Ophelia
05 Zweites Lied der Ophelia
06 Drittes Lied der Ophelia
07 Viertes Lied der Ophelia
08 Fanfaren und Lied des Totengräbers
09 Fanfare und Schlussmarsch Fortinbras
10 Boris Godunov - Erstes und zweites Lied von Missail und Warlaam
11 Lied des einsamen Wanderers
12 Drei Lieder der Einsamkeit
13 Chor der betrunkenen Bojaren
14 Lied der Xenia
15 Reverie
16 Polonaise
17 Mazurka und Scherzando
18 Amoroso
19 Der Besatzer am Springbrunnen und im Garten
20 Die Schlacht
21 Lieder des Schwachsinnigen und der blinden Bettler
22 Aufstand des Volkes
Исполнители:
Serge Prokofiev (1891-1953) - Hamlet * Boris Godunov
Incidental Music
Marina Domaschenko, Mezzosopran
Victor Sawaley, Tenor I
Yury Swatenko, Tenor II
Marek Kalbus, Bariton
Arutjun Kotchinian, Bass
Rias-Kammerchor
Rundfunk-Sinfonieorchester
Michail Jurowski

Лог создания рипа

Exact Audio Copy V1.0 beta 3 from 29. August 2011
EAC extraction logfile from 24. June 2013, 0:31
Prokofiev / Hamlet & Boris Godunov, Jurowski 2003
Used drive : TSSTcorpCDDVDW SH-216AB Adapter: 0 ID: 1
Read mode : Secure
Utilize accurate stream : Yes
Defeat audio cache : Yes
Make use of C2 pointers : No
Read offset correction : 6
Overread into Lead-In and Lead-Out : No
Fill up missing offset samples with silence : Yes
Delete leading and trailing silent blocks : No
Null samples used in CRC calculations : Yes
Used interface : Native Win32 interface for Win NT & 2000
Used output format : Monkey's Audio Lossless Encoder
Selected bitrate : High Lossless Compression
Quality : High
Add ID3 tag : Yes
Command line compressor : K:\Program Files (x86)\Exact Audio Copy\Monkeys Audio\Monkey's Audio\MAC.exe
Additional command line options : -6 -V -T "ARTIST=%artist%" -T "TITLE=%title%" -T "ALBUM=%albumtitle%" -T "DATE=%year%" -T "TRACKNUMBER=%tracknr%" -T "GENRE=%genre%" -T "COMMENT=%comment%" -T "BAND=%albuminterpret%" -T "ALBUMARTIST=%albuminterpret%" -T "COMPOSER=%composer%" %haslyrics%--tag-from-file=LYRICS="%lyricsfile%"%haslyrics% -T "DISCNUMBER=%cdnumber%" -T "TOTALDISCS=%totalcds%" -T "TOTALTRACKS=%numtracks%" %hascover%--picture="%coverfile%"%hascover% %source% -o %dest%
TOC of the extracted CD
Track | Start | Length | Start sector | End sector
---------------------------------------------------------
1 | 0:00.00 | 5:48.50 | 0 | 26149
2 | 5:48.50 | 2:30.62 | 26150 | 37461
3 | 8:19.37 | 4:10.53 | 37462 | 56264
4 | 12:30.15 | 2:09.01 | 56265 | 65940
5 | 14:39.16 | 2:20.44 | 65941 | 76484
6 | 16:59.60 | 1:12.03 | 76485 | 81887
7 | 18:11.63 | 2:13.11 | 81888 | 91873
8 | 20:24.74 | 3:20.64 | 91874 | 106937
9 | 23:45.63 | 4:25.64 | 106938 | 126876
10 | 28:11.52 | 1:59.44 | 126877 | 135845
11 | 30:11.21 | 0:39.65 | 135846 | 138835
12 | 30:51.11 | 3:04.35 | 138836 | 152670
13 | 33:55.46 | 1:04.56 | 152671 | 157526
14 | 35:00.27 | 2:26.23 | 157527 | 168499
15 | 37:26.50 | 0:40.26 | 168500 | 171525
16 | 38:07.01 | 1:18.31 | 171526 | 177406
17 | 39:25.32 | 1:18.61 | 177407 | 183317
18 | 40:44.18 | 2:47.29 | 183318 | 195871
19 | 43:31.47 | 2:07.49 | 195872 | 205445
20 | 45:39.21 | 4:46.40 | 205446 | 226935
21 | 50:25.61 | 2:01.10 | 226936 | 236020
22 | 52:26.71 | 4:48.67 | 236021 | 257687
Range status and errors
Selected range
Filename I:\Foobar-EAC\Prokofiev - Hamlet & Boris Godunov, Jurowski 2003.wav
Peak level 90.1 %
Extraction speed 2.9 X
Range quality 99.9 %
Test CRC 6A5D6777
Copy CRC 6A5D6777
Copy OK
No errors occurred
AccurateRip summary
Track 1 accurately ripped (confidence 2) [7F7A4197] (AR v1)
Track 2 accurately ripped (confidence 2) [11FE770B] (AR v1)
Track 3 accurately ripped (confidence 2) [A0B4FE51] (AR v1)
Track 4 accurately ripped (confidence 2) [F3231508] (AR v1)
Track 5 accurately ripped (confidence 2) [BE98603E] (AR v1)
Track 6 accurately ripped (confidence 2) [16C78907] (AR v1)
Track 7 accurately ripped (confidence 2) [41249ECC] (AR v1)
Track 8 accurately ripped (confidence 2) [C31130A9] (AR v1)
Track 9 accurately ripped (confidence 2) [9CE41DB0] (AR v1)
Track 10 accurately ripped (confidence 2) [7F72F804] (AR v1)
Track 11 accurately ripped (confidence 2) [2A66C800] (AR v1)
Track 12 accurately ripped (confidence 2) [C6B4926F] (AR v1)
Track 13 accurately ripped (confidence 2) [0C2A192A] (AR v1)
Track 14 accurately ripped (confidence 2) [8F277131] (AR v1)
Track 15 accurately ripped (confidence 2) [6012507A] (AR v1)
Track 16 accurately ripped (confidence 2) [E4430EA1] (AR v1)
Track 17 accurately ripped (confidence 2) [4FFFB5E4] (AR v1)
Track 18 accurately ripped (confidence 2) [773EFEA8] (AR v1)
Track 19 accurately ripped (confidence 2) [02B3E9E6] (AR v1)
Track 20 accurately ripped (confidence 2) [0007A7A5] (AR v1)
Track 21 accurately ripped (confidence 2) [42FEA2C0] (AR v1)
Track 22 accurately ripped (confidence 2) [13BB06BC] (AR v1)
All tracks accurately ripped
End of status report
==== Log checksum 460DE20A9E53A5A33BBC01678FF29921A5D056C3BC1F79DA8A51E59D78ABF0CB ====

Содержание индексной карты (.CUE)

REM GENRE Vocal
REM DATE 2003
REM DISCID 190D6B16
REM COMMENT "ExactAudioCopy v1.0b3"
PERFORMER "Prokofiev"
TITLE "Hamlet & Boris Godunov, Jurowski 2003"
FILE "Prokofiev - Hamlet & Boris Godunov, Jurowski 2003.ape" WAVE
TRACK 01 AUDIO
TITLE "Hamlet - Der Geist von Hamlets Vater"
PERFORMER "Prokofiev"
ISRC DEB260300039
FLAGS DCP
INDEX 01 00:00:00
TRACK 02 AUDIO
TITLE "Hamlet - Marsch des Claudius"
PERFORMER "Prokofiev"
ISRC DEB260300040
FLAGS DCP
INDEX 00 05:47:50
INDEX 01 05:48:50
TRACK 03 AUDIO
TITLE "Hamlet - Fanfaren, Pantomime, Fanfaren"
PERFORMER "Prokofiev"
ISRC DEB260300041
FLAGS DCP
INDEX 00 08:18:37
INDEX 01 08:19:37
TRACK 04 AUDIO
TITLE "Hamlet - Erstes Lied der Ophelia"
PERFORMER "Prokofiev"
ISRC DEB260300042
FLAGS DCP
INDEX 00 12:27:15
INDEX 01 12:30:15
TRACK 05 AUDIO
TITLE "Hamlet - Zweites Lied der Ophelia"
PERFORMER "Prokofiev"
ISRC DEB260300043
FLAGS DCP
INDEX 00 14:37:16
INDEX 01 14:39:16
TRACK 06 AUDIO
TITLE "Hamlet - Drittes Lied der Ophelia"
PERFORMER "Prokofiev"
ISRC DEB260300044
FLAGS DCP
INDEX 00 16:57:60
INDEX 01 16:59:60
TRACK 07 AUDIO
TITLE "Hamlet - Viertes Lied der Ophelia"
PERFORMER "Prokofiev"
ISRC DEB260300045
FLAGS DCP
INDEX 00 18:09:63
INDEX 01 18:11:63
TRACK 08 AUDIO
TITLE "Hamlet - Fanfaren und Lied des Totengräbers"
PERFORMER "Prokofiev"
ISRC DEB260300046
FLAGS DCP
INDEX 00 20:23:74
INDEX 01 20:24:74
TRACK 09 AUDIO
TITLE "Hamlet - Fanfare und Schlussmarsch Fortinbras"
PERFORMER "Prokofiev"
ISRC DEB260300047
FLAGS DCP
INDEX 00 23:43:63
INDEX 01 23:45:63
TRACK 10 AUDIO
TITLE "Boris Godunov - Erstes und zweites Lied von Missail und Warlaam"
PERFORMER "Prokofiev"
ISRC DEB260300048
FLAGS DCP
INDEX 00 27:59:52
INDEX 01 28:11:52
TRACK 11 AUDIO
TITLE "Boris Godunov - Lied des einsamen Wanderers"
PERFORMER "Prokofiev"
ISRC DEB260300049
FLAGS DCP
INDEX 01 30:11:21
TRACK 12 AUDIO
TITLE "Boris Godunov - Drei Lieder der Einsamkeit"
PERFORMER "Prokofiev"
ISRC DEB260300050
FLAGS DCP
INDEX 01 30:51:11
TRACK 13 AUDIO
TITLE "Boris Godunov - Chor der betrunkenen Bojaren"
PERFORMER "Prokofiev"
ISRC DEB260300050
FLAGS DCP
INDEX 01 33:55:46
TRACK 14 AUDIO
TITLE "Boris Godunov - Lied der Xenia"
PERFORMER "Prokofiev"
ISRC DEB260300052
FLAGS DCP
INDEX 00 34:57:27
INDEX 01 35:00:27
TRACK 15 AUDIO
TITLE "Boris Godunov - Reverie"
PERFORMER "Prokofiev"
ISRC DEB260300053
FLAGS DCP
INDEX 00 37:23:50
INDEX 01 37:26:50
TRACK 16 AUDIO
TITLE "Boris Godunov - Polonaise"
PERFORMER "Prokofiev"
ISRC DEB260300054
FLAGS DCP
INDEX 01 38:07:01
TRACK 17 AUDIO
TITLE "Boris Godunov - Mazurka und Scherzando"
PERFORMER "Prokofiev"
ISRC DEB260300055
FLAGS DCP
INDEX 00 39:24:32
INDEX 01 39:25:32
TRACK 18 AUDIO
TITLE "Boris Godunov - Amoroso"
PERFORMER "Prokofiev"
ISRC DEB260300056
FLAGS DCP
INDEX 00 40:43:18
INDEX 01 40:44:18
TRACK 19 AUDIO
TITLE "Boris Godunov - Der Besatzer am Springbrunnen und im Garten"
PERFORMER "Prokofiev"
ISRC DEB260300056
FLAGS DCP
INDEX 01 43:31:47
TRACK 20 AUDIO
TITLE "Boris Godunov - Die Schlacht"
PERFORMER "Prokofiev"
ISRC DEB260300058
FLAGS DCP
INDEX 00 45:38:21
INDEX 01 45:39:21
TRACK 21 AUDIO
TITLE "Boris Godunov - Lieder des Schwachsinnigen und der blinden Bettler"
PERFORMER "Prokofiev"
ISRC DEB260300059
FLAGS DCP
INDEX 00 50:22:61
INDEX 01 50:25:61
TRACK 22 AUDIO
TITLE "Boris Godunov - Aufstand des Volkes"
PERFORMER "Prokofiev"
ISRC DEB260300060
FLAGS DCP
INDEX 00 52:24:71
INDEX 01 52:26:71



Показать сообщения:    

Текущее время: 07-Дек 21:25

Часовой пояс: UTC + 3


Вы не можете начинать темы
Вы не можете отвечать на сообщения
Вы не можете редактировать свои сообщения
Вы не можете удалять свои сообщения
Вы не можете голосовать в опросах
Вы не можете прикреплять файлы к сообщениям
Вы не можете скачивать файлы