(Classical, Renaissance, madrigal) Carlo Gesualdo - Madrigals Books 5 and 6 - Delitiae Musicae, Marco Longhini - 3CD - 2013, FLAC (image+.cue) lossless


 

[Цитировать]

Carlo Gesualdo - Madrigals Books 5 and 6 - Delitiae Musicae, Marco Longhini
Жанр: Classical, Renaissance, madrigal
Год издания диска: 2013
Издатель (лейбл): Naxos
Номер по каталогу: 8.573147-49
Дата записи: 2010-2011
Аудиокодек: FLAC
Тип рипа: image+.cue
Битрейт аудио: lossless
Продолжительность: 3:02:40
Источник: собственный рип
Наличие сканов в содержимом раздачи: да
Треклист:
Carlo Gesualdo da Venosa (1566-1613)
Madrigals Book 5
CD1
[1] Gioite voi col canto
[2] S'io non miro non moro
[3] Itene, o miei sospiri
[4] Dolcissima mia vita
[5] O dolorosa gioia
[6] Qual fora, donna
[7] Felicissimo sonno
[8] Se vi duol il mio duolo
[9] Occhi del mio cor vita
[10] Languisce al fin
[11] Merce, grido piangendo
[12] O voi troppo felici
[13] Correte, amanti a prova
[14] Asciugate i begli occhi
[15] Tu m'uccidi, o crudele
[16] Deh, coprite il bel seno
[17] Poiche l'avida sete - Prima parte
[18] Ma tu, cagion - Seconda parte
CD2
[1] O tenebroso giorno
[2] Se tu fuggi, io non resto
[3] T'amo, mia vita!
Madrigals Book 6
[4] Se la mia morte brami
[5] Belta, poi che t'assenti
[6] Tu piangi, o Filli mia
[7] Resta di darmi noia
[8] Chiaro risplender suole
[9] "Io parto" e piu non dissi
[10] Mille volte il di moro
[11] O dolce mio tesoro
[12] Deh, come invan sospiro
[13] Io pur respiro
[14] Alme d'amor rubelle
[15] Candido e verde fiore
CD3
[1] Ardita zanzaretta
[2] Ardo per te, mio bene
[3] Ancide sol la morte
[4] Quel "no" crudel
[5] Moro, lasso, al mio duolo
[6] Volan quasi farfalle
[7] Al mio gioir il ciel si fa sereno
[8] Tu segui, o bella Clori
[9] Ancor che per amarti
[10] Gia piansi nel dolore
[11] Quanto ridente e bella
Исполнители:
Delitiæ Musicæ
Marco Longhini

Лог создания рипа: CD1

Exact Audio Copy V1.0 beta 3 from 29. August 2011
EAC extraction logfile from 19. June 2013, 14:15
Delitiae Musicae, Marco Longhini / Gesualdo - Madrigals Books 5 and 6 - CD1
Used drive : HL-DT-STDVDRRW GWA-4164B Adapter: 5 ID: 0
Read mode : Secure
Utilize accurate stream : Yes
Defeat audio cache : Yes
Make use of C2 pointers : No
Read offset correction : 102
Overread into Lead-In and Lead-Out : No
Fill up missing offset samples with silence : Yes
Delete leading and trailing silent blocks : No
Null samples used in CRC calculations : Yes
Used interface : Native Win32 interface for Win NT & 2000
Used output format : User Defined Encoder
Selected bitrate : 896 kBit/s
Quality : High
Add ID3 tag : No
Command line compressor : C:\Program Files\Exact Audio Copy\FLAC\FLAC.EXE
Additional command line options : -V -8 %source%
TOC of the extracted CD
Track | Start | Length | Start sector | End sector
---------------------------------------------------------
1 | 0:00.00 | 4:23.44 | 0 | 19768
2 | 4:23.44 | 4:17.31 | 19769 | 39074
3 | 8:41.00 | 4:19.15 | 39075 | 58514
4 | 13:00.15 | 3:43.55 | 58515 | 75294
5 | 16:43.70 | 4:47.10 | 75295 | 96829
6 | 21:31.05 | 2:58.58 | 96830 | 110237
7 | 24:29.63 | 4:15.31 | 110238 | 129393
8 | 28:45.19 | 4:46.23 | 129394 | 150866
9 | 33:31.42 | 3:34.35 | 150867 | 166951
10 | 37:06.02 | 5:01.41 | 166952 | 189567
11 | 42:07.43 | 6:13.64 | 189568 | 217606
12 | 48:21.32 | 2:34.15 | 217607 | 229171
13 | 50:55.47 | 3:41.08 | 229172 | 245754
14 | 54:36.55 | 5:16.65 | 245755 | 269519
15 | 59:53.45 | 4:50.17 | 269520 | 291286
16 | 64:43.62 | 3:21.05 | 291287 | 306366
17 | 68:04.67 | 2:24.16 | 306367 | 317182
18 | 70:29.08 | 3:39.29 | 317183 | 333636
Range status and errors
Selected range
Filename D:\temp\Music\Gesualdo - Madrigals Books 5 and 6\Gesualdo - Madrigals Books 5 and 6 - CD1.wav
Peak level 99.9 %
Extraction speed 2.5 X
Range quality 99.9 %
Test CRC BCA09039
Copy CRC BCA09039
Copy OK
No errors occurred
AccurateRip summary
Track 1 not present in database
Track 2 not present in database
Track 3 not present in database
Track 4 not present in database
Track 5 not present in database
Track 6 not present in database
Track 7 not present in database
Track 8 not present in database
Track 9 not present in database
Track 10 not present in database
Track 11 not present in database
Track 12 not present in database
Track 13 not present in database
Track 14 not present in database
Track 15 not present in database
Track 16 not present in database
Track 17 not present in database
Track 18 not present in database
None of the tracks are present in the AccurateRip database
End of status report
==== Log checksum 9F1A90195FCE093925DC7C03D2C6A2F57AFDB876EAD4E31BA380B90526932E81 ====

Лог создания рипа: CD2

Exact Audio Copy V1.0 beta 3 from 29. August 2011
EAC extraction logfile from 19. June 2013, 15:26
Delitiae Musicae, Marco Longhini / Gesualdo - Madrigals Books 5 and 6 - CD2
Used drive : HL-DT-STDVDRRW GWA-4164B Adapter: 5 ID: 0
Read mode : Secure
Utilize accurate stream : Yes
Defeat audio cache : Yes
Make use of C2 pointers : No
Read offset correction : 102
Overread into Lead-In and Lead-Out : No
Fill up missing offset samples with silence : Yes
Delete leading and trailing silent blocks : No
Null samples used in CRC calculations : Yes
Used interface : Native Win32 interface for Win NT & 2000
Used output format : User Defined Encoder
Selected bitrate : 896 kBit/s
Quality : High
Add ID3 tag : No
Command line compressor : C:\Program Files\Exact Audio Copy\FLAC\FLAC.EXE
Additional command line options : -V -8 %source%
TOC of the extracted CD
Track | Start | Length | Start sector | End sector
---------------------------------------------------------
1 | 0:00.00 | 3:11.64 | 0 | 14388
2 | 3:11.64 | 2:21.06 | 14389 | 24969
3 | 5:32.70 | 3:09.33 | 24970 | 39177
4 | 8:42.28 | 6:41.50 | 39178 | 69302
5 | 15:24.03 | 5:17.07 | 69303 | 93084
6 | 20:41.10 | 5:19.51 | 93085 | 117060
7 | 26:00.61 | 5:21.36 | 117061 | 141171
8 | 31:22.22 | 6:07.16 | 141172 | 168712
9 | 37:29.38 | 4:30.28 | 168713 | 188990
10 | 41:59.66 | 5:20.57 | 188991 | 213047
11 | 47:20.48 | 4:22.72 | 213048 | 232769
12 | 51:43.45 | 5:10.46 | 232770 | 256065
13 | 56:54.16 | 4:41.31 | 256066 | 277171
14 | 61:35.47 | 2:27.20 | 277172 | 288216
15 | 64:02.67 | 3:04.12 | 288217 | 302028
Range status and errors
Selected range
Filename D:\temp\Music\Gesualdo - Madrigals Books 5 and 6\Gesualdo - Madrigals Books 5 and 6 - CD2.wav
Peak level 99.4 %
Extraction speed 2.8 X
Range quality 100.0 %
Test CRC 9EE1B745
Copy CRC 9EE1B745
Copy OK
No errors occurred
AccurateRip summary
Track 1 not present in database
Track 2 not present in database
Track 3 not present in database
Track 4 not present in database
Track 5 not present in database
Track 6 not present in database
Track 7 not present in database
Track 8 not present in database
Track 9 not present in database
Track 10 not present in database
Track 11 not present in database
Track 12 not present in database
Track 13 not present in database
Track 14 not present in database
Track 15 not present in database
None of the tracks are present in the AccurateRip database
End of status report
==== Log checksum E98163F81BB47CD7B830471FBAF5836E4808B56E3D5BE5176EF5D64710E2375B ====

Лог создания рипа: CD3

Exact Audio Copy V1.0 beta 3 from 29. August 2011
EAC extraction logfile from 20. June 2013, 9:57
Delitiae Musicae, Marco Longhini / Gesualdo - Madrigals Books 5 and 6 - CD3
Used drive : HL-DT-STDVDRRW GWA-4164B Adapter: 5 ID: 0
Read mode : Secure
Utilize accurate stream : Yes
Defeat audio cache : Yes
Make use of C2 pointers : No
Read offset correction : 102
Overread into Lead-In and Lead-Out : No
Fill up missing offset samples with silence : Yes
Delete leading and trailing silent blocks : No
Null samples used in CRC calculations : Yes
Used interface : Native Win32 interface for Win NT & 2000
Used output format : User Defined Encoder
Selected bitrate : 896 kBit/s
Quality : High
Add ID3 tag : No
Command line compressor : C:\Program Files\Exact Audio Copy\FLAC\FLAC.EXE
Additional command line options : -V -8 %source%
TOC of the extracted CD
Track | Start | Length | Start sector | End sector
---------------------------------------------------------
1 | 0:00.00 | 4:45.48 | 0 | 21422
2 | 4:45.48 | 4:10.61 | 21423 | 40233
3 | 8:56.34 | 3:43.08 | 40234 | 56966
4 | 12:39.42 | 3:02.70 | 56967 | 70686
5 | 15:42.37 | 5:42.10 | 70687 | 96346
6 | 21:24.47 | 3:16.74 | 96347 | 111120
7 | 24:41.46 | 2:43.58 | 111121 | 123403
8 | 27:25.29 | 3:29.16 | 123404 | 139094
9 | 30:54.45 | 4:17.22 | 139095 | 158391
10 | 35:11.67 | 3:15.17 | 158392 | 173033
11 | 38:27.09 | 2:52.27 | 173034 | 185960
Range status and errors
Selected range
Filename D:\temp\Music\Gesualdo - Madrigals Books 5 and 6\Gesualdo - Madrigals Books 5 and 6 - CD3.wav
Peak level 99.0 %
Extraction speed 2.7 X
Range quality 100.0 %
Test CRC 086040A1
Copy CRC 086040A1
Copy OK
No errors occurred
AccurateRip summary
Track 1 not present in database
Track 2 not present in database
Track 3 not present in database
Track 4 not present in database
Track 5 not present in database
Track 6 not present in database
Track 7 not present in database
Track 8 not present in database
Track 9 not present in database
Track 10 not present in database
Track 11 not present in database
None of the tracks are present in the AccurateRip database
End of status report
==== Log checksum 2450B07FD8B42A0DEFD5B34ADAC7778D3B61D5177F6873586168843BDCB300FD ====



Показать сообщения:    

Текущее время: 04-Дек 04:53

Часовой пояс: UTC + 3


Вы не можете начинать темы
Вы не можете отвечать на сообщения
Вы не можете редактировать свои сообщения
Вы не можете удалять свои сообщения
Вы не можете голосовать в опросах
Вы не можете прикреплять файлы к сообщениям
Вы не можете скачивать файлы