Памятные страницы кино. Поют любимые артисты (Инна Максимова) [1983, киноконцерт, кинематограф, DVB]


Статистика раздачи [Обновить пиров]
Размер:  1.51 GB   |    Зарегистрирован:  8 месяцев 23 дня   |    Скачан:  0 раз

Полного источника не было: Никогда

Личеров:  6  [  0 KB/s  ]   Подробная статистика пиров
 
   
 
 
 

[Цитировать]

Памятные страницы кино
Поют любимые артисты- Год выпуска: 1983
Страна: СССР
Жанр: киноконцерт, кинематограф
Продолжительность: 00:42:30
Перевод: Не требуется
Русские субтитры: нет
Режиссер: Инна МаксимоваВ ролях: Борис Чирков, Любовь Орлова, Михаил Жаров, Марина Ладынина, Николай Крючков, Владимир Володин, Людмила Целиковская, Валентина Серова, Марк Бернес, Лидия Смирнова, Виталий Доронин, Петр Алейников
Описание: В киноконцерте, составленном по просьбам телезрителей Главной редакцией кинопрограмм ЦТ, прозвучат песни из любимых кинофильмов: "Юность Максима" (1934), "Семеро смелых" (1936), "Истребители" (1939), "Светлый путь" (1940), "Волга-Волга" (1938), "Первая перчатка" (1946), "Моя любовь" (1940), "Сердца четырех" (1941), "Трактористы" (1939), "Свинарка и пастух" (1941), "Антоша Рыбкин" (1942), "Жди меня" (1943), "Два бойца" (1943), "Беспокойное хозяйство" (1946), "В 6 часов вечера после войны" (1944), "Весна" (1947).
Доп. информация: Запись со спутника (канал "Ностальгия").
Сэмпл: http://multi-up.com/879669
качество: DVB
формат: MPEG-PS (См. при проблемах с просмотром видео)
Видео: MPEG Video 2, 720x576@768x576 (4:3), 25 fps, ~4800 kbps avg, 0.463 bit/pixel
Аудио: 48 kHz, MPEG Audio 2, 2 ch, ~192.00 kbps avg

MediaInfo

Полное имя                               : H:\My Torrents\[apreder]Memory_Pages_of_Cinema(1983)DVB.mpg
Формат : MPEG-PS
Размер файла : 1,51 Гбайт
Продолжительность : 42 м.
Режим общего битрейта : Переменный
Общий поток : 5093 Кбит/сек
Видео
Идентификатор : 224 (0xE0)
Формат : MPEG Video
Версия формата : Version 2
Профиль формата : Main@Main
Параметр BVOP формата : Да
Параметр матрицы формата : Выборочная
Параметр GOP формата : Variable
Продолжительность : 42 м.
Вид битрейта : Переменный
Битрейт : 4800 Кбит/сек
Ширина : 720 пикселей
Высота : 576 пикселей
Соотношение сторон : 4:3
Частота кадров : 25,000 кадров/сек
Стандарт вещания : PAL
Цветовое пространство : YUV
Субдискретизация насыщенности : 4:2:0
Битовая глубина : 8 бит
Тип развёртки : Чересстрочная
Порядок развёртки : Верхнее поле первое
Метод сжатия : С потерями
Бит/(Пиксели*Кадры) : 0.463
TimeCode_FirstFrame : 00:00:00:00
TimeCode_Source : Group of pictures header
Размер потока : 1,43 Гбайт (94%)
Аудио
Идентификатор : 192 (0xC0)
Формат : MPEG Audio
Версия формата : Version 1
Профиль формата : Layer 2
Продолжительность : 42 м.
Вид битрейта : Постоянный
Битрейт : 192 Кбит/сек
Каналы : 2 канала
Частота : 48,0 КГц
Метод сжатия : С потерями
Размер потока : 58,4 Мбайт (4%)

Скриншоты


Скриншоты анаморфированные


-816/798√
[teatrix.ru].t17167.torrent 
Торрент: Зарегистрирован [ 2016-03-17 00:52 ] · EC2D3CC172BCA95011442D257B01F647354D551C

Скачать .torrent

Скачать

16 KB

Статус: проверено
Скачан: 0 раз
Размер: 1.51 GB
terms.php



Показать сообщения:    

Текущее время: 09-Дек 01:05

Часовой пояс: UTC + 3


Вы не можете начинать темы
Вы не можете отвечать на сообщения
Вы не можете редактировать свои сообщения
Вы не можете удалять свои сообщения
Вы не можете голосовать в опросах
Вы не можете прикреплять файлы к сообщениям
Вы можете скачивать файлы