(Medieval, Sacree, Chant, A Cappella) Liber Sapientiae: Gregorian antiphons, psalms, lectures, responsories in medieval codices from Hungary / Schola Hungarica, cond. Janka Szendrei & Laszlo Dobszay - 1984, WavPack (image+.cue) lossless


 

[Цитировать]

Liber Sapientiae
Gregorian antiphons, psalms, lectures, responsories
in medieval codices from Hungary

Schola Hungarica
Janka Szendrei & László Dobszay
Жанр: Medieval, Sacrée, Chant, A Cappella
Страна-производитель диска: Austria
Год издания диска: 1984
Издатель (лейбл): Hungaroton / Sony DACD
Номер по каталогу: HCD 12534-2
Дата записи: 1984
Аудиокодек: WavPack
Тип рипа: image+.cue
Битрейт аудио: lossless
Продолжительность: 54:09
Источник: собственный рип
Наличие сканов в содержимом раздачи: да

Треклист

[1] 1. Versetti 1, 2 (Merulo) [2:51]
2. Sapientia clamitat (Introductory antiphon)
3. Versetto 3 (Merulo)
[2] INVITATORIUM [3:12]
Jubilemus Deo (Invitatory antiphon)
Venite exultemus (Psalm 94)
[3] NOCTURNUS I [13:14]
1. Praebe, fili (Antiphon)
Beatus vir (Psalm 1)
2. Parabolae Salomonis (Lecture 1)
In principio Deus (Responsory 1)
3. Disciplinam Domini (Lecture 2)
Emitte Domine (Responsory 2)
4. Ego sapientia (Lecture 3)
Da mihi Domine (Responsory 3)
5. Versetto 4 (Merulo)
[4] NOCTURNUS II [14:19]
1. Sapientia aedificavit (Antiphon)
Coeli enarrant (Psalm 18, Part 1)
2. Vanitas vanitatum (Lecture 4)
Initium sapientiae (Responsory 4)
3. Omnia tempus habent (Lecture 5)
Gyrum coeli (Responsory 5)
4. Melius est ergo duos esse (Lecture 6)
Quae sunt in corde (Responsory 6)
5. Versetto 5 (Merulo)
[5] NOCTURNUS III [11:59]
1. Omnis sapientiae (Antiphon)
Lex Domini immaculata (Psalm 18, Part 2)
2. Iustorium animae (Lecture 7)
Verbum iniquum (Responsory 7)
3. Sum quidem et ego (Lecture 8)
Ne derelinquas me (Responsory 8)
4. Rectorem te posuerunt? (Lecture 9)
Super salutem (Responsory 9)
5. Versetto 6 (Merulo)
[6] MAGNIFICAT [8:36]
1. Dominus possedit me (Antiphon)
Magnificat (Dufay)
2. Versetto 7 (Merulo)

Исполнители

SCHOLA HUNGARICA
László Várföldi, András Soós, István Kunsági, László Kuncz,
László Kéringer, János Mezey, László Melis, Sándor Révész,
László Dobszay - lectures
László Dobszay - organ (versetti)
Conducted
Janka Szendrei
László Dobszay
(2, 4/1, 5/1)

log EAC

Exact Audio Copy V0.99 prebeta 5 from 4. May 2009
Отчёт EAC об извлечении, выполненном 28. мая 2013, 7:27
Schola Hungarica / Liber Sapientiae
Дисковод: PIONEER DVD-RW DVR-219L Adapter: 3 ID: 0
Режим чтения : Достоверность
Использование точного потока : Да
Отключение кэша аудио : Да
Использование указателей C2 : Нет
Коррекция смещения при чтении : 6
Способность читать области Lead-in и Lead-out : Нет
Заполнение пропущенных сэмплов тишиной : Да
Удаление блоков с тишиной в начале и конце : Нет
При вычислениях CRC использовались нулевые сэмплы : Да
Интерфейс : Встроенный Win32-интерфейс для Win NT/2000
Выходной формат : Внутренние WAV-операции
Формат сэмплов : 44.100 Гц; 16 бит; стерео
TOC извлечённого CD
Трек | Старт | Длительность | Начальный сектор | Конечный сектор
---------------------------------------------------------------------
1 | 0:00.00 | 2:50.57 | 0 | 12806
2 | 2:50.57 | 3:11.48 | 12807 | 27179
3 | 6:02.30 | 13:13.50 | 27180 | 86704
4 | 19:16.05 | 14:18.42 | 86705 | 151096
5 | 33:34.47 | 11:59.15 | 151097 | 205036
6 | 45:33.62 | 8:35.63 | 205037 | 243724
Характеристики диапазона извлечения и сообщения об ошибках
Выбранный диапазон
Имя файла C:\Documents and Settings\agni\Мои документы\EAC\Schola Hungarica - Liber Sapientiae.wav
Пиковый уровень 97.9 %
Качество диапазона 100.0 %
CRC теста 7AD4D4D6
CRC копии 7AD4D4D6
Копирование... OK
Ошибок не произошло
AccurateRip: сводка
Трек 1 точность не определена (достоверность 1) [F0EC4B06], AccurateRip вернул [30A603C1]
Трек 2 точность не определена (достоверность 1) [CA981256], AccurateRip вернул [471AD89E]
Трек 3 точность не определена (достоверность 1) [38EABF30], AccurateRip вернул [8252FB6E]
Трек 4 точность не определена (достоверность 1) [9A198401], AccurateRip вернул [D5F1FE1D]
Трек 5 точность не определена (достоверность 1) [9167B212], AccurateRip вернул [BDE29BA3]
Трек 6 точность не определена (достоверность 1) [06267E6B], AccurateRip вернул [FEBBD704]
Ни один трек не прошёл проверки на точность
В вашей базе может быть иной вариант штамповки диска
Конец отчёта

Tau Analyzer





Доп. информация

Recorded at the Calvinist Church, Ócsa, Hungary (13th century)
Recording producer: Dóra Antal
Balance engineer: Ferenc Pécsi
Sources: Gregorian pieces: Pauline Antiphonal (15th century), Zagreb MR 8.
Tones of the lectures: Liber Usualis; Antiphonarium Monasticum
sec. trad. Helveticae Congr. Benedictinae.
Front cover: Pálóczi Missale (National Széchényi Library, Budapest)
Photo: Csaba Ráfael
Design: Miklós Szűts



Показать сообщения:    

Текущее время: 11-Дек 11:07

Часовой пояс: UTC + 3


Вы не можете начинать темы
Вы не можете отвечать на сообщения
Вы не можете редактировать свои сообщения
Вы не можете удалять свои сообщения
Вы не можете голосовать в опросах
Вы не можете прикреплять файлы к сообщениям
Вы не можете скачивать файлы