(Medieval, Sacree, Chant, A Cappella) Guillaume du Fay: Recollectio - Festorum Beatae Mariae Virginis / Schola Hungarica, cond. Janka Szendrei & Laszlo Dobszay - 1990, WavPack (image+.cue) lossless


 

[Цитировать]

Guillaume du Fay
Recollectio
Festorum Beatae Mariae Virginis
Schola Hungarica
Janka Szendrei & László Dobszay
Жанр: Medieval, Sacrée, Chant, A Cappella
Страна-производитель диска: Hungary
Год издания диска: 1990
Издатель (лейбл): Hungaroton
Номер по каталогу: HCD 31292
Дата записи: 1990
Аудиокодек: WavPack
Тип рипа: image+.cue
Битрейт аудио: lossless
Продолжительность: 67:22
Источник: собственный рип
Наличие сканов в содержимом раздачи: да

Треклист

AD PRIMAS VESPERAS
01. Antiphonae: Tenebrae diffuguint - Solem iustitiae - Gabriel archangelus
Non concava vallium - Virgo puerum sistit
[2:25]
02. Hymnus: Gaude redempta [2:14]
03. Responsorium: Surge, propera, columba mea [2:12]
04. a) Versiculus: Ora pro nobis [2:24]
b) Antiphona ad Magnificat: Vidi speciosam
c) Oratio: Deus qui nos
05. Du Fay: Alma Redemptoris Mater (motetus 3 vocum) [3:06]
AD MATUTINUM
06. Invitatorium: Festa Genitricis Dei recolentes [3:03]
Nocturnus I
07. Antiphonae: Virga florem paritura - Anna parit Ioachin - Angelus mittitur [1:08]
08. a) Lectio: Dolens pietas divina [2:13]
b) Responsorium: Omnipotens Dominus hominis lapsum
09. a) Lectio: Ipse qui novit [1:59]
b) Responsorium: Ad nutum Domini
10. a) Lectio: Haec est enim, quam splendor [2:47]
b) Responsorium: Suscipe verbum
Nocturnus II
11. Antiphonae: Festinat ad cognatam - Femina vetus - Virgo Mater Filium [1:09]
12. a) Lectio: Quae humiliter consentiens [2:01]
b) Responsorium: Ibo ad montem myrrhae
13. a) Lectio: Ipsa prius salutavit [2:18]
b) Responsorium: Ut audivit Praecursoris
14. a) Lectio: Officiis decenter peractis [2:53]
b) Responsorium: Senex puerum portabat
15. Clemens non Papa: Plaude, superna Sion (Motetus 5 vocum) [4:31]
Nocturnus III
16. Antiphonae: Salve, vellus - Tota pulchra es - Gloriam Virginis [1:32]
17. a) Lectio: O beate senex [1:43]
b) Responsorium: Scandit ad aethera
18. a) Lectio: Si reges morituri [1:55]
b) Responsorium: O felix Virgo
19. a) Lectio: Iam hiems sub lege [3:01]
b) Responsorium: Plaude superna Sion
AD LAUDES
20. Antiphona ad Benedictus: Beata es, Dei Genitrix [0:53]
AD MISSAM
21. Graduale: Luce splendida fulgebis [1:14]
22. Alleluia! Beati omnes [2:09]
23. Josquin Desprez: Mittit ad sterilem (Sequentia 4 vocum) [6:36]
AD SECUNDAS VESPERAS
24. Antiphonae: Antiquum consilium - Anna stellam matutinam - Mittitur ad Mariam
Vetulam visitat - Aeternum Puerumque
[2:03]
25. Hymnus: Nuntiat angelus [3:36]
26. a) Capitulum: Signum magnum apparuit [6:17]
b) Antiphona ad Magnificat: Ave, Virgo speciosa
c) Du Fay: Magnificat 3 vocum

Исполнители

SCHOLA HUNGARICA
Soli:
Ágnes Dobszay, János Mezey, András Soós [5]
Conducted by
Janka Szendrei
[2]-[4], [8]-[10], [12]-[14], [17]-[19], [21], [26]
László Dobszay
[1], [5]-[7], [11], [15], [16], [20], [22], [24]

log EAC

Exact Audio Copy V0.99 prebeta 5 from 4. May 2009
Отчёт EAC об извлечении, выполненном 26. мая 2013, 16:37
Schola Hungarica / Guillaume du Fay: Recollectio - Festorum Beatae Mariae Virginis
Дисковод: PIONEER DVD-RW DVR-219L Adapter: 3 ID: 0
Режим чтения : Достоверность
Использование точного потока : Да
Отключение кэша аудио : Да
Использование указателей C2 : Нет
Коррекция смещения при чтении : 6
Способность читать области Lead-in и Lead-out : Нет
Заполнение пропущенных сэмплов тишиной : Да
Удаление блоков с тишиной в начале и конце : Нет
При вычислениях CRC использовались нулевые сэмплы : Да
Интерфейс : Встроенный Win32-интерфейс для Win NT/2000
Выходной формат : Внутренние WAV-операции
Формат сэмплов : 44.100 Гц; 16 бит; стерео
TOC извлечённого CD
Трек | Старт | Длительность | Начальный сектор | Конечный сектор
---------------------------------------------------------------------
1 | 0:00.25 | 2:25.17 | 25 | 10916
2 | 2:25.42 | 2:14.13 | 10917 | 20979
3 | 4:39.55 | 2:12.15 | 20980 | 30894
4 | 6:51.70 | 2:24.32 | 30895 | 41726
5 | 9:16.27 | 3:06.30 | 41727 | 55706
6 | 12:22.57 | 3:03.05 | 55707 | 69436
7 | 15:25.62 | 1:07.53 | 69437 | 74514
8 | 16:33.40 | 2:13.02 | 74515 | 84491
9 | 18:46.42 | 1:58.43 | 84492 | 93384
10 | 20:45.10 | 2:46.65 | 93385 | 105899
11 | 23:32.00 | 1:08.70 | 105900 | 111069
12 | 24:40.70 | 2:01.37 | 111070 | 120181
13 | 26:42.32 | 2:18.18 | 120182 | 130549
14 | 29:00.50 | 2:52.70 | 130550 | 143519
15 | 31:53.45 | 4:30.47 | 143520 | 163816
16 | 36:24.17 | 1:31.70 | 163817 | 170711
17 | 37:56.12 | 1:42.63 | 170712 | 178424
18 | 39:39.00 | 1:55.02 | 178425 | 187051
19 | 41:34.02 | 3:00.60 | 187052 | 200611
20 | 44:34.62 | 0:52.40 | 200612 | 204551
21 | 45:27.27 | 1:13.60 | 204552 | 210086
22 | 46:41.12 | 2:09.30 | 210087 | 219791
23 | 48:50.42 | 6:35.58 | 219792 | 249474
24 | 55:26.25 | 2:03.17 | 249475 | 258716
25 | 57:29.42 | 3:35.70 | 258717 | 274911
26 | 61:05.37 | 6:17.00 | 274912 | 303186
Характеристики диапазона извлечения и сообщения об ошибках
Выбранный диапазон
Имя файла C:\Documents and Settings\agni\Мои документы\EAC\Schola Hungarica - Guillaume du Fay - Recollectio.wav
Пиковый уровень 94.1 %
Качество диапазона 100.0 %
CRC теста AA605E03
CRC копии AA605E03
Копирование... OK
Ошибок не произошло
AccurateRip: сводка
Трек 1 точность не определена (достоверность 1) [182EC786], AccurateRip вернул [6A3666D5]
Трек 2 точность не определена (достоверность 1) [CFD57053], AccurateRip вернул [6B47CCAF]
Трек 3 точность не определена (достоверность 1) [50A5CA2F], AccurateRip вернул [76B8113B]
Трек 4 точность не определена (достоверность 1) [50FCBC3F], AccurateRip вернул [01D52AF4]
Трек 5 точность не определена (достоверность 1) [1D12947C], AccurateRip вернул [6017FC06]
Трек 6 точность не определена (достоверность 1) [DF200797], AccurateRip вернул [B12785C0]
Трек 7 точность не определена (достоверность 1) [23AF31B8], AccurateRip вернул [BC8C4575]
Трек 8 точность не определена (достоверность 1) [D8C9E5ED], AccurateRip вернул [214839A7]
Трек 9 точность не определена (достоверность 1) [E64801BC], AccurateRip вернул [A471BDA3]
Трек 10 точность не определена (достоверность 1) [AC290D09], AccurateRip вернул [664D8485]
Трек 11 точность не определена (достоверность 1) [994F7B1A], AccurateRip вернул [42C6CEA0]
Трек 12 точность не определена (достоверность 1) [231A7EEA], AccurateRip вернул [0DFC79D0]
Трек 13 точность не определена (достоверность 1) [74DFAB09], AccurateRip вернул [42EC78C8]
Трек 14 точность не определена (достоверность 1) [7F053999], AccurateRip вернул [37AC5394]
Трек 15 точность не определена (достоверность 1) [54BBAF9E], AccurateRip вернул [6216E1BB]
Трек 16 точность не определена (достоверность 1) [91EA93F0], AccurateRip вернул [5550084B]
Трек 17 точность не определена (достоверность 1) [FCF12757], AccurateRip вернул [018DACE3]
Трек 18 точность не определена (достоверность 1) [91A534D3], AccurateRip вернул [D5391E29]
Трек 19 точность не определена (достоверность 1) [737A4BDA], AccurateRip вернул [DD46EB4A]
Трек 20 точность не определена (достоверность 1) [F7D64376], AccurateRip вернул [9C0C72A2]
Трек 21 точность не определена (достоверность 1) [206C7AF1], AccurateRip вернул [DADE604F]
Трек 22 точность не определена (достоверность 1) [77991942], AccurateRip вернул [6113ADA1]
Трек 23 точность не определена (достоверность 1) [E9DA2C94], AccurateRip вернул [9578A703]
Трек 24 точность не определена (достоверность 1) [D13CF4CA], AccurateRip вернул [38690495]
Трек 25 точность не определена (достоверность 1) [C78B0B3E], AccurateRip вернул [296BF842]
Трек 26 точность не определена (достоверность 1) [A92A9F14], AccurateRip вернул [6ACE5FB1]
Ни один трек не прошёл проверки на точность
В вашей базе может быть иной вариант штамповки диска
Конец отчёта

Tau Analyzer







Доп. информация

Recording Producer: Dóra Antal
Balance Engineer: Veronika Vincze
Front cover: Notre-Dame de Grace from Cambrai
Design: István Práczky



Показать сообщения:    

Текущее время: 04-Дек 09:08

Часовой пояс: UTC + 3


Вы не можете начинать темы
Вы не можете отвечать на сообщения
Вы не можете редактировать свои сообщения
Вы не можете удалять свои сообщения
Вы не можете голосовать в опросах
Вы не можете прикреплять файлы к сообщениям
Вы не можете скачивать файлы