(Medieval, Sacree, Chant, A Cappella) Magyar Gregorianum 1: Gregorian and Polyphonic Chants from Medieval Hungary - Christmas / Schola Hungarica, cond. Janka Szendrei & Laszlo Dobszay - 1994, WavPack (image+.cue) lossless


 

[Цитировать]

Magyar Gregoriánum 1
Gregorian and Polyphonic Chants from Medieval Hungary
Christmas
Schola Hungarica
Janka Szendrei & László Dobszay
Жанр: Medieval, Sacrée, Chant, A Cappella
Страна-производитель диска: Hungary
Год издания диска: 1994
Издатель (лейбл): Hungaroton
Номер по каталогу: HCD 11477
Дата записи: 1970
Аудиокодек: WavPack
Тип рипа: image+.cue
Битрейт аудио: lossless
Продолжительность: 50:20
Источник: собственный рип
Наличие сканов в содержимом раздачи: да

Треклист

01. Ave spes nostra [1:45]
02. Veni, Redemptor gentium [2:38]
03. Christus natus est nobis [5:06]
04. Iubilamen [5:04]
05. Descendit de caelis [4:46]
06. Genealogia Christi [4:46]
07. Lux fulgebit [3:02]
08. Alleluia, Dominus regnavit [1:47]
09. Eia, recolamus [3:06]
10. Procedentem sponsum [3:39]
11. Verbum caro factum est [3:39]
12. Hodie Christus natus est [1:05]
13. Dies est laetitiae [4:07]
14. Te Deum laudamus [5:49]

Исполнители

SCHOLA HUNGARICA
conducted by
László Dobszay, Janka Szendrei

log EAC

Exact Audio Copy V0.99 prebeta 5 from 4. May 2009
Отчёт EAC об извлечении, выполненном 27. мая 2013, 21:02
Schola Hungarica / Magyar Gregorianum 1
Дисковод: PIONEER DVD-RW DVR-219L Adapter: 3 ID: 0
Режим чтения : Достоверность
Использование точного потока : Да
Отключение кэша аудио : Да
Использование указателей C2 : Нет
Коррекция смещения при чтении : 6
Способность читать области Lead-in и Lead-out : Нет
Заполнение пропущенных сэмплов тишиной : Да
Удаление блоков с тишиной в начале и конце : Нет
При вычислениях CRC использовались нулевые сэмплы : Да
Интерфейс : Встроенный Win32-интерфейс для Win NT/2000
Выходной формат : Внутренние WAV-операции
Формат сэмплов : 44.100 Гц; 16 бит; стерео
TOC извлечённого CD
Трек | Старт | Длительность | Начальный сектор | Конечный сектор
---------------------------------------------------------------------
1 | 0:00.00 | 1:45.15 | 0 | 7889
2 | 1:45.15 | 2:38.15 | 7890 | 19754
3 | 4:23.30 | 5:05.40 | 19755 | 42669
4 | 9:28.70 | 5:04.07 | 42670 | 65476
5 | 14:33.02 | 4:46.33 | 65477 | 86959
6 | 19:19.35 | 4:45.72 | 86960 | 108406
7 | 24:05.32 | 3:01.43 | 108407 | 122024
8 | 27:07.00 | 1:47.17 | 122025 | 130066
9 | 28:54.17 | 3:06.13 | 130067 | 144029
10 | 32:00.30 | 3:38.72 | 144030 | 160451
11 | 35:39.27 | 3:39.03 | 160452 | 176879
12 | 39:18.30 | 1:04.57 | 176880 | 181736
13 | 40:23.12 | 4:07.33 | 181737 | 200294
14 | 44:30.45 | 5:49.32 | 200295 | 226501
Характеристики диапазона извлечения и сообщения об ошибках
Выбранный диапазон
Имя файла C:\Documents and Settings\agni\Мои документы\EAC\Schola Hungarica - Magyar Gregorianum 1.wav
Пиковый уровень 95.5 %
Качество диапазона 100.0 %
CRC теста D2715153
CRC копии D2715153
Копирование... OK
Ошибок не произошло
AccurateRip: сводка
Трек 1 нет в базе данных
Трек 2 нет в базе данных
Трек 3 нет в базе данных
Трек 4 нет в базе данных
Трек 5 нет в базе данных
Трек 6 нет в базе данных
Трек 7 нет в базе данных
Трек 8 нет в базе данных
Трек 9 нет в базе данных
Трек 10 нет в базе данных
Трек 11 нет в базе данных
Трек 12 нет в базе данных
Трек 13 нет в базе данных
Трек 14 нет в базе данных
Ни одного трека нет в базе AccurateRip
Конец отчёта

Tau Analyzer







Доп. информация

Recording producer: Dóra Antal
Balance engineer: Attila Fülöp
Design by Hungaroton
Recorded at the Reformed Church, Ócsa (1970)
(p) 1994 HUNGAROTON CLASSIC LTD



Показать сообщения:    

Текущее время: 03-Дек 07:36

Часовой пояс: UTC + 3


Вы не можете начинать темы
Вы не можете отвечать на сообщения
Вы не можете редактировать свои сообщения
Вы не можете удалять свои сообщения
Вы не можете голосовать в опросах
Вы не можете прикреплять файлы к сообщениям
Вы не можете скачивать файлы