(Medieval, Sacree, Chant, A Cappella) Magyar Gregorianum 6: Gregorian Chants from Medieval Hungary - Chants of the Blessed Virgin Mary & Funeral Chants / Schola Hungarica, cond. Laszlo Dobszay & Janka Szendrei - 1994, WavPack (image+.cue) los


 

[Цитировать]

Magyar Gregoriánum 6
Gregorian Chants from Medieval Hungary
Chants of the Blessed Virgin Mary
Funeral Chants

Schola Hungarica
László Dobszay & Janka Szendrei
Жанр: Medieval, Sacrée, Chant, A Cappella
Страна-производитель диска: Austria
Год издания диска: 1994
Издатель (лейбл): Hungaroton / Sony DADC
Номер по каталогу: HCD 12170
Дата записи: 1981
Аудиокодек: WavPack
Тип рипа: image+.cue
Битрейт аудио: lossless
Продолжительность: 48:22
Источник: собственный рип
Наличие сканов в содержимом раздачи: да

Треклист

Chants of the Blessed Virgin Mary
01. Salve sancta Parens - Introit [2:18]
02. Kyrie virginitatis amator - Kyrie with Trope [3:01]
03. Gloria de Beata [3:04]
04. Adest nobis nunc miranda - Reading with Trope [6:39]
05. Alleluja. Fuit Virgo - Discant for the feast of Presentation of Our Lady [2:10]
06. Alleluja. Dulcis mater [1:44]
07. Mira mater - Sequence [1:56]
08. Verbum caro - two-part Cantio [1:56]
09. Recordare - Offertory with Trope [2:14]
Funeral Chants
10. Salve regina - Maria-Antiphon by Hermannus Contractus [2:29]
11. Circumdederunt me - Funeral Invitatory [5:33]
12. Kyrie - Oremus - Kyrie and Prayer over the Dead [1:14]
13. Libera me - Funeral Responsory [5:36]
14. Aperite mihi - Five Funeral Antiphons [1:45]
15. Sermon over the Sepulchre (recited in Hungarian by Gyula Szersén) [2:58]
16. Ego sum resurrectio - Funeral Antiphon [0:46]
17. Si bona suscepimus - Closing Responsory [3:00]

Исполнители

SCHOLA HUNGARICA
Conducted by
László Dobszay, Janka Szendrei

log EAC

Exact Audio Copy V0.99 prebeta 5 from 4. May 2009
Отчёт EAC об извлечении, выполненном 27. мая 2013, 19:11
Schola Hungarica / Magyar Gregorianum 6
Дисковод: PIONEER DVD-RW DVR-219L Adapter: 3 ID: 0
Режим чтения : Достоверность
Использование точного потока : Да
Отключение кэша аудио : Да
Использование указателей C2 : Нет
Коррекция смещения при чтении : 6
Способность читать области Lead-in и Lead-out : Нет
Заполнение пропущенных сэмплов тишиной : Да
Удаление блоков с тишиной в начале и конце : Нет
При вычислениях CRC использовались нулевые сэмплы : Да
Интерфейс : Встроенный Win32-интерфейс для Win NT/2000
Выходной формат : Внутренние WAV-операции
Формат сэмплов : 44.100 Гц; 16 бит; стерео
TOC извлечённого CD
Трек | Старт | Длительность | Начальный сектор | Конечный сектор
---------------------------------------------------------------------
1 | 0:00.00 | 2:17.57 | 0 | 10331
2 | 2:17.57 | 3:00.63 | 10332 | 23894
3 | 5:18.45 | 3:04.17 | 23895 | 37711
4 | 8:22.62 | 6:39.00 | 37712 | 67636
5 | 15:01.62 | 2:09.58 | 67637 | 77369
6 | 17:11.45 | 1:44.12 | 77370 | 85181
7 | 18:55.57 | 1:56.05 | 85182 | 93886
8 | 20:51.62 | 1:56.18 | 93887 | 102604
9 | 22:48.05 | 2:14.02 | 102605 | 112656
10 | 25:02.07 | 2:28.53 | 112657 | 123809
11 | 27:30.60 | 5:33.35 | 123810 | 148819
12 | 33:04.20 | 1:13.55 | 148820 | 154349
13 | 34:18.00 | 5:35.45 | 154350 | 179519
14 | 39:53.45 | 1:44.50 | 179520 | 187369
15 | 41:38.20 | 2:58.12 | 187370 | 200731
16 | 44:36.32 | 0:45.50 | 200732 | 204156
17 | 45:22.07 | 3:00.35 | 204157 | 217691
Характеристики диапазона извлечения и сообщения об ошибках
Выбранный диапазон
Имя файла C:\Documents and Settings\agni\Мои документы\EAC\Schola Hungarica - Magyar Gregorianum 6.wav
Пиковый уровень 93.8 %
Качество диапазона 99.9 %
CRC теста EA17C841
CRC копии EA17C841
Копирование... OK
Ошибок не произошло
AccurateRip: сводка
Трек 1 точность не определена (достоверность 2) [5E69F040], AccurateRip вернул [C638CB6C]
Трек 2 точность не определена (достоверность 2) [D26B3A05], AccurateRip вернул [4F354AE3]
Трек 3 точность не определена (достоверность 2) [883C1834], AccurateRip вернул [E037AB34]
Трек 4 точность не определена (достоверность 2) [91EB1E2A], AccurateRip вернул [88A3F0CC]
Трек 5 точность не определена (достоверность 2) [D7804A04], AccurateRip вернул [3A4596A0]
Трек 6 точность не определена (достоверность 2) [FDA0FDA2], AccurateRip вернул [EED2D699]
Трек 7 точность не определена (достоверность 2) [E2843037], AccurateRip вернул [A4108EFE]
Трек 8 точность не определена (достоверность 2) [1B4EA674], AccurateRip вернул [00C5DA2A]
Трек 9 точность не определена (достоверность 2) [E7953C56], AccurateRip вернул [490C80AE]
Трек 10 точность не определена (достоверность 2) [1A000668], AccurateRip вернул [5DA964DA]
Трек 11 точность не определена (достоверность 2) [E2526549], AccurateRip вернул [4D59657C]
Трек 12 точность не определена (достоверность 2) [BC4CBB9A], AccurateRip вернул [75AD9605]
Трек 13 точность не определена (достоверность 2) [6E56B787], AccurateRip вернул [55EE5C25]
Трек 14 точность не определена (достоверность 2) [A6B9DF7E], AccurateRip вернул [0A98D13C]
Трек 15 точность не определена (достоверность 2) [D3013DF4], AccurateRip вернул [BED1B86A]
Трек 16 точность не определена (достоверность 2) [44DAC8FF], AccurateRip вернул [FBCF0B8B]
Трек 17 точность не определена (достоверность 2) [8C2DCAEC], AccurateRip вернул [C602E046]
Ни один трек не прошёл проверки на точность
В вашей базе может быть иной вариант штамповки диска
Конец отчёта

Tau Analyzer







Доп. информация

Recording producer: Zoltán Hézser
Balance engineer: Judit Lukács
Front cover: Madonna (II.) from Toporc, c. 1420-30
Design Miklós Juhász
Recorded at Ócsa Calvinist Church (Hungary) in 1981
(p) 1994 HUNGAROTON CLASSIC LTD



Показать сообщения:    

Текущее время: 10-Дек 17:49

Часовой пояс: UTC + 3


Вы не можете начинать темы
Вы не можете отвечать на сообщения
Вы не можете редактировать свои сообщения
Вы не можете удалять свои сообщения
Вы не можете голосовать в опросах
Вы не можете прикреплять файлы к сообщениям
Вы не можете скачивать файлы