(Classical) Britten: Les Illuminations; Quatre Chansons francaises • Finzi: Dies Natalis • Delius: A Late Lark - Susan Gritton; BBC Symphony Orchestra, Edward Gardner - 2010, FLAC (image+.cue) lossless


 

[Цитировать]

Britten: Les Illuminations; Quatre Chansons françaises • Finzi: Dies Natalis • Delius: A Late Lark - Susan Gritton; BBC Symphony Orchestra, Edward Gardner
Жанр: Classical
Страна-производитель диска: UK
Год издания диска: 2010
Издатель (лейбл): Chandos Records
Номер по каталогу: CHAN 10590
Дата записи: 2009
Аудиокодек: FLAC
Тип рипа: image+.cue
Битрейт аудио: lossless
Продолжительность: 68:15
Источник: собственный рип
Наличие сканов в содержимом раздачи: да
Треклист:
Gerald Finzi (1901–1956)
[1]-[5] Dies natalis, Op.8
Cantata for high voice and string orchestra
Benjamin Britten (1913–1976)
[6]-[15] Les Illuminations, Op. 18
for soprano or tenor and string orchestra
[16]-[19] Quatre Chansons françaises
for high voice and orchestra
Frederick Delius (1862–1934)
[20] A Late Lark
Исполнители:
Susan Gritton soprano
BBC Symphony Orchestra
Edward Gardner

Лог создания рипа

Exact Audio Copy V1.0 beta 3 from 29. August 2011
EAC extraction logfile from 1. June 2013, 21:38
Susan Gritton, BBC Symphony Orchestra, Edward Gardner / Susan Gritton sings Britten, Finzi & Delius
Used drive : HL-DT-STDVDRAM GSA-4083N Adapter: 1 ID: 0
Read mode : Secure
Utilize accurate stream : Yes
Defeat audio cache : Yes
Make use of C2 pointers : No
Read offset correction : 667
Overread into Lead-In and Lead-Out : No
Fill up missing offset samples with silence : Yes
Delete leading and trailing silent blocks : No
Null samples used in CRC calculations : Yes
Used interface : Native Win32 interface for Win NT & 2000
Used output format : User Defined Encoder
Selected bitrate : 896 kBit/s
Quality : High
Add ID3 tag : No
Command line compressor : C:\Program Files\Exact Audio Copy\Flac\flac.exe
Additional command line options : -V -8 %source%
TOC of the extracted CD
Track | Start | Length | Start sector | End sector
---------------------------------------------------------
1 | 0:00.00 | 5:12.38 | 0 | 23437
2 | 5:12.38 | 7:22.25 | 23438 | 56612
3 | 12:34.63 | 4:04.20 | 56613 | 74932
4 | 16:39.08 | 4:59.40 | 74933 | 97397
5 | 21:38.48 | 4:32.65 | 97398 | 117862
6 | 26:11.38 | 2:00.35 | 117863 | 126897
7 | 28:11.73 | 2:32.40 | 126898 | 138337
8 | 30:44.38 | 1:01.25 | 138338 | 142937
9 | 31:45.63 | 1:59.10 | 142938 | 151872
10 | 33:44.73 | 1:40.65 | 151873 | 159437
11 | 35:25.63 | 1:06.10 | 159438 | 164397
12 | 36:31.73 | 2:53.65 | 164398 | 177437
13 | 39:25.63 | 4:18.00 | 177438 | 196787
14 | 43:43.63 | 2:55.50 | 196788 | 209962
15 | 46:39.38 | 2:40.25 | 209963 | 221987
16 | 49:19.63 | 3:05.00 | 221988 | 235862
17 | 52:24.63 | 3:18.00 | 235863 | 250712
18 | 55:42.63 | 4:46.20 | 250713 | 272182
19 | 60:29.08 | 2:23.65 | 272183 | 282972
20 | 62:52.73 | 5:22.12 | 282973 | 307134
Range status and errors
Selected range
Filename J:\New Music\Susan Gritton Sings Britten, Finzi & Delius\Susan Gritton sings Britten, Finzi & Delius.wav
Peak level 85.4 %
Extraction speed 2.2 X
Range quality 100.0 %
Test CRC 676A7349
Copy CRC 676A7349
Copy OK
No errors occurred
End of status report
==== Log checksum F1D30A796CD1E0182DC510C3DF8257063EE891A2F6B51A2D9CC0F0D83E517C59 ====



Показать сообщения:    

Текущее время: 03-Дек 01:20

Часовой пояс: UTC + 3


Вы не можете начинать темы
Вы не можете отвечать на сообщения
Вы не можете редактировать свои сообщения
Вы не можете удалять свои сообщения
Вы не можете голосовать в опросах
Вы не можете прикреплять файлы к сообщениям
Вы не можете скачивать файлы