(Easy Listening, Classical Crossover, Folk, Violin) Erno Olah - Szfera (Orchestra Arranged and Conducted by Rogier van Otterloo) - 1985/1988, FLAC (image+.cue), lossless


 

[Цитировать]

-Ernö Olah / Szféra
Orchestra Arranged and Conducted by Rogier van Otterloo
-
Жанр : Easy Listening, Classical Crossover, Folk
Год записи/выпуска диска : 1985/1988
Производитель диска : West Germany {by PDO}
Аудио кодек : FLAC
Тип рипа : image+.cue (Test & Copy)
Битрейт аудио : lossless
Продолжительность : 37:10
Лейбл : Philips
Каталожный номер : 0042282608529
Источник (релизер): Рип оригинального диска из личной коллекции
Сканы: прилагаются


01. Waters of Balaton (3:32)
02. The Gift (3:27)
03. There's Only One Girl in the World (3:42)
04. My Bonnie Lad (3:36)
05. She's a Witch (2:34)
06. Csitári Mountains (4:21)
07. A Maiden's Song (3:49)
08. Some Have, Some Haven't (3:38)
09. À la claire fontaine (3:53)
10. Ack Värmeland, du sköna (3:20)
-Erno Olah, скрипка, автор каденций
Rogier van Otterloo, дирижер; аранжировщик
Ruud Jacobs, продюсер
-Дополнительная информация: Альбом народных песен стран Европы и России в исполнении голландского скрипача венгерского происхождения Эрно Олаха и оркестра под управлением Рогира ван Оттерлоо. По стилю и звучанию альбом очень напоминает саундтрек "Список Шиндлера".-

Лог создания рипа

Exact Audio Copy V1.0 beta 3 from 29. August 2011
EAC extraction logfile from 2. July 2013, 17:28
Erno Olah / Szfera (Philips 826 085-2)
Used drive : TSSTcorpCDDVDW TS-L633C Adapter: 2 ID: 0
Read mode : Secure
Utilize accurate stream : Yes
Defeat audio cache : Yes
Make use of C2 pointers : No
Read offset correction : 6
Overread into Lead-In and Lead-Out : No
Fill up missing offset samples with silence : Yes
Delete leading and trailing silent blocks : No
Null samples used in CRC calculations : Yes
Used interface : Native Win32 interface for Win NT & 2000
Used output format : Internal WAV Routines
Sample format : 44.100 Hz; 16 Bit; Stereo
TOC of the extracted CD
Track | Start | Length | Start sector | End sector
---------------------------------------------------------
1 | 0:00.32 | 4:33.30 | 32 | 20536
2 | 4:33.62 | 3:27.05 | 20537 | 36066
3 | 8:00.67 | 3:43.65 | 36067 | 52856
4 | 11:44.57 | 3:37.35 | 52857 | 69166
5 | 15:22.17 | 2:36.05 | 69167 | 80871
6 | 17:58.22 | 4:23.13 | 80872 | 100609
7 | 22:21.35 | 3:53.00 | 100610 | 118084
8 | 26:14.35 | 3:40.02 | 118085 | 134586
9 | 29:54.37 | 3:55.30 | 134587 | 152241
10 | 33:49.67 | 3:20.05 | 152242 | 167246
Range status and errors
Selected range
Filename D:\Erno Olah - Szfera (Philips 826 085-2).wav
Peak level 93.3 %
Extraction speed 3.3 X
Range quality 100.0 %
Test CRC AD1136CA
Copy CRC AD1136CA
Copy OK
No errors occurred
AccurateRip summary
Track 1 not present in database
Track 2 not present in database
Track 3 not present in database
Track 4 not present in database
Track 5 not present in database
Track 6 not present in database
Track 7 not present in database
Track 8 not present in database
Track 9 not present in database
Track 10 not present in database
None of the tracks are present in the AccurateRip database
End of status report
---- CUETools DB Plugin V2.1.4
[CTDB TOCID: rUageGUi_0hA38Ibwpj.kzhMbMs-] disk not present in database
Submit result: rUageGUi_0hA38Ibwpj.kzhMbMs- has been uploaded

Содержание индексной карты (.CUE)

REM GENRE "Easy Listening"
REM DATE 1985
REM DISCID 7E08B50A
REM COMMENT "ExactAudioCopy v1.0b3"
PERFORMER "Ernö Olah"
TITLE "Szféra (Philips 826 085-2)"
FILE "Erno Olah - Szfera (Philips 826 085-2).flac" WAVE
TRACK 01 AUDIO
TITLE "Waters of Balaton"
PERFORMER "Ernö Olah"
INDEX 00 00:00:00
INDEX 01 00:00:32
TRACK 02 AUDIO
TITLE "The Gift"
PERFORMER "Ernö Olah"
INDEX 00 04:32:60
INDEX 01 04:33:62
TRACK 03 AUDIO
TITLE "There's Only One Girl in the World"
PERFORMER "Ernö Olah"
INDEX 01 08:00:67
TRACK 04 AUDIO
TITLE "My Bonnie Lad"
PERFORMER "Ernö Olah"
INDEX 00 11:43:45
INDEX 01 11:44:57
TRACK 05 AUDIO
TITLE "She's a Witch"
PERFORMER "Ernö Olah"
INDEX 00 15:20:57
INDEX 01 15:22:17
TRACK 06 AUDIO
TITLE "Csitári Mountains"
PERFORMER "Ernö Olah"
INDEX 00 17:57:07
INDEX 01 17:58:22
TRACK 07 AUDIO
TITLE "A Maiden's Song"
PERFORMER "Ernö Olah"
INDEX 00 22:19:42
INDEX 01 22:21:35
TRACK 08 AUDIO
TITLE "Some Have, Some Haven't"
PERFORMER "Ernö Olah"
INDEX 00 26:11:27
INDEX 01 26:14:35
TRACK 09 AUDIO
TITLE "À la claire fontaine"
PERFORMER "Ernö Olah"
INDEX 00 29:52:65
INDEX 01 29:54:37
TRACK 10 AUDIO
TITLE "Ack Värmeland, du sköna"
PERFORMER "Ernö Olah"
INDEX 00 33:48:17
INDEX 01 33:49:67

Рекомендуется к прослушиванию (Мои раздачи)


фортепьяно
Raul Di Blasio - Дискография (20CD) - 1983-2008, [WAVPack] (латино-поп)
David Foster - Коллекция (4CD + 2CDS) - 1988-2006, [FLAC] (поп)
Louis van Dijk - Коллекция (2 CD) - 1988-1993, [FLAC] (легкий оркестровый джаз)
Laurens van Rooyen - Коллекция (17CD) (1980-1995), [FLAC] (поп-классика)
Jan Vayne - Коллекция (17CD + 2CDS) (1989-2007), [FLAC] (класси-поп)
Pim Jacobs - Music-All-In (Orchestra Arranged and Conducted by Rogier van Otterloo) - 1985, [FLAC] (легкий оркестровый джаз)
духовые
Anneke de Vries - Con amore - 1987, [FLAC] (классика)
Han de Vries - Appassionato - 1989, [FLAC] (классипоп)
Chris Hinze - Коллекция (2CD) [w/ Louis van Dijk] - 1982-1985, [FLAC] (поп)
Thijs van Leer - Коллекция (5CD) - 1976-1992, [FLAC] (классика)
Berdien Stenberg - Коллекция (4CD) (1980-1992), [FLAC] (классика)
Gheorghe Zamfir - Music by Candlelight (Orchestra conducted by Harry van Hoof) - 1978, [FLAC] (классипоп)
струнные + гранд-оркестры
Luis Cobos - Дискография (16CD) - 1982-2008, [FLAC] (классика)
Raymond Lefevre et son grand orchestre - Japanese Limited Mini LP SHM-CD (4CD) (1969-1976/2009), [FLAC] (классипоп)
Erno Olah - Szfera (Orchestra Arranged and Conducted by Rogier van Otterloo) - 1985/1988, [FLAC] (Классика)
Franck Pourcel - Classics (w/ LSO & NPO) - 1988 (1979/1981), [FLAC] (классика)
Jaap van Zweden - Mozart: Ode aan Amadeus (2CD) - (1985/1986), [FLAC] (классика)
Piet Souer - Strings by Candlelight (Orchestra Arranged and Conducted by Harry van Hoof) - 1976, [FLAC] (классипоп)
Rogier van Otterloo - On The Move - The French Collection - 1976/2011, [FLAC] (легкий оркестровый джаз)
-



Показать сообщения:    

Текущее время: 10-Дек 08:05

Часовой пояс: UTC + 3


Вы не можете начинать темы
Вы не можете отвечать на сообщения
Вы не можете редактировать свои сообщения
Вы не можете удалять свои сообщения
Вы не можете голосовать в опросах
Вы не можете прикреплять файлы к сообщениям
Вы не можете скачивать файлы