Школа йоги для всех: Плоский живот / YogaWorks for Everybody: Fit Abs [2009 г., фитнес/йога, DVDRip, RUS/ENG] (Видеоурок)


Статистика раздачи [Обновить пиров]
Размер:  828 MB   |    Зарегистрирован:  8 месяцев 18 дней   |    Скачан:  0 раз

Полного источника не было: Никогда

Личеров:  21  [  0 KB/s  ]   Подробная статистика пиров
 
   
 
 
 

[Цитировать]

YogaWorks for Everybody: Fit Abs
Школа йоги для всех: Плоский живот

-

Год выпуска: 2009
Страна: USA
Жанр: фитнес/йога
Язык: Английский
Перевод: русский синхронный (закадровый)
Продолжительность: 01:06:59
-
Описание: Инструкторы: Jesse Schein, Billy and Patti Asad
Настало время привести свое тело в порядок, чтобы чувствовать себя на все 100%!
С помощью этой программы Вы сможете укрепить мышцы средней части тела, сбросить лишние килограммы и сделать Вашу талию неотразимой. Программа включает два комплекса:
Комплекс №1: Упражнения для укрепления пресса (10 минут)
Этот комплекс построен по принципу интервальных тренировок, используемых профессиональными спортсменами. Последние научные исследования подтверждают, что сочетание классических асан йоги и интенсивных физических упражнений позволяет добиться максимального результата для снижения веса.
Комплекс №2: Упражнения для средней части тела (40 минут)
Эти упражнения помогут укрепить Ваши мышцы и повысить выносливость. Регулярно выполняя их, Вы сможете сформировать красивое, стройное и сильное тело, о котором Вы всегда мечтали!-Уровень сложности: для всех
Проконсультируйтесь со своим врачом, прежде чем приступить к этим или другим упражнениям.-
Качество: DVDRip
Формат: AVI
Видео кодек: XviD
Аудио кодек: MP3
Видео: XviD, 640 x 480, 4/3, 1 458 Kbps, 25.000 fps, 0.190 b/px
Аудиодорожка № 1: MPEG-1 Audio layer 3, 128 Kbps, CBR, 48.0 KHz, Русский язык
Аудиодорожка № 2: MPEG-1 Audio layer 3, 128 Kbps, CBR, 48.0 KHz, Английский язык

Скриншоты видео

-Меню - скриншоты DVD

YogaWorks For Everybody_01 - Learning Guide = 14:24

YogaWorks For Everybody_02 - Fit Abs = 09:26

YogaWorks for Everybody_03 - Core Yoga Flow = 43:05

Аннотация на английском языке


It’s time to rejuvenate, slim down, and feel great! With YOGAWORKS FIT ABS, you will build a strong core in this fun, demanding practice that will tone your muscles and melt inches from your waist.
This DVD provides a full body workout with a focus on your abs. The instructors are very motivating and provide clear directions, help you breathe correctly and really challenge you. This DVD can provide a fun, yet challenging workout for anyone. If you have forgotten some of the yoga poses, this DVD also has the Learning Guide to remind you. For those who are not able to attend classes at one of the YogaWorks studios, this is a great way to stay fit, healthy and active.
The DVD has two main segments:
YOGAWORKS FIT ABS (10 Min.): The Fit Abs yoga practice takes advantage of the science behind interval training with the added bonus of core conditioning. Traditional yoga poses in segments of high-intensity movement are rotated with slow-burn holds. Don’t be surprised if you find yourself losing weight from this practice!
CORE YOGA FLOW (40 Min.): This part of the DVD is just what you would expect from the name - you "flow" through various asanas, getting your heart pumping and muscles shaking. As you move continuously in the Core Yoga Flow practice, you’ll feel your heart rate get going and your muscles burn. With this workout you will achieve strong, sculpted abs and a slim waistline.
Like other YogaWorks DVDs, a learning guide is included. I can't recommend this feature enough for anyone who is new to yoga or at all unsure of the proper posture for the basic poses. It's not a bad refresher even for those who practice yoga regularly, either!
Level of Difficulty
Beginner in terms of how easy it is to follow, but there are intermediate and advanced moves.

MediaInfo DVD

Complete name                    : YogaWorks.for.Everybody.Fit.Abs.2009.NTSC.DVDR-0MNiDVD\VIDEO_TS\VTS_01_1.VOB
Format                           : MPEG-PS
File size                        : 1 024 MiB
Duration                         : 13mn 45s
Overall bit rate                 : 10.4 Mbps
[br]
Video
ID                               : 224 (0xE0)
Format                           : MPEG Video
Format version                   : Version 2
Format profile                   : Main@Main
Format settings, BVOP            : Yes
Format settings, Matrix          : Default
Duration                         : 13mn 45s
Bit rate mode                    : Variable
Bit rate                         : 10.0 Mbps
Width                            : 720 pixels
Height                           : 480 pixels
Display aspect ratio             : 4:3
Frame rate                       : 29.970 fps
Standard                         : NTSC
Color space                      : YUV
Chroma subsampling               : 4:2:0
Bit depth                        : 8 bits
Scan type                        : Interlaced
Scan order                       : Top Field First
Bits/(Pixel*Frame)               : 0.966
Stream size                      : 985 MiB (96%)
[br]
Audio
ID                               : 128 (0x80)
Format                           : AC-3
Format/Info                      : Audio Coding 3
Mode extension                   : CM (complete main)
Duration                         : 13mn 45s
Bit rate mode                    : Constant
Bit rate                         : 192 Kbps
Channel(s)                       : 2 channels
Channel positions                : Front: L R
Sampling rate                    : 48.0 KHz
Bit depth                        : 16 bits
Stream size                      : 18.9 MiB (2%)
[br]
Text
ID                               : 224 (0xE0)-DVD-2
Format                           : EIA-608
Muxing mode                      : DVD-Video
Muxing mode, more info           : Muxed in Video #1
Stream size                      : 0.00 Byte (0%)
[br]
Menu

Как выбрать аудиодорожкуMPC

GOM

VLC

DVD5 - http://teatrix.ru/viewtopic.php?t=17501
Альтернатива DVDRip - http://teatrix.ru/viewtopic.php?t=17504
[teatrix.ru].t17185.torrent 
Торрент: Зарегистрирован [ 2016-03-17 00:56 ] · 745545A0BCE47E5ABD5C87B806F0BB144245A105

Скачать .torrent

Скачать

17 KB

Статус: проверено
Скачан: 0 раз
Размер: 828 MB
terms.php



Быстрый ответ

Имя:

      
Для отправки сообщений необходимо включить JavaScript
Показать сообщения:    

Текущее время: 04-Дек 21:23

Часовой пояс: UTC + 3


Вы можете начинать темы
Вы можете отвечать на сообщения
Вы не можете редактировать свои сообщения
Вы не можете удалять свои сообщения
Вы не можете голосовать в опросах
Вы не можете прикреплять файлы к сообщениям
Вы можете скачивать файлы