Кинопанорама (Ксения Маринина) [1990, телепередача, кинематограф, DVB]


Статистика раздачи [Обновить пиров]
Размер:  3.1 GB   |    Зарегистрирован:  8 месяцев 23 дня   |    Скачан:  0 раз

Полного источника не было: Никогда

 
   
 
 
 

[Цитировать]

Кинопанорама- Год выпуска: 1990
Страна: СССР
Жанр: телепередача, кинематограф
Продолжительность: 01:27:06 (00:46:45 + 00:40:21)
Перевод: Не требуется
Русские субтитры: нет
Режиссер: Ксения МарининаВ ролях: Виктор Мережко (ведущий), Татьяна Доронина, Михаил Швейцер, Наталья Гундарева, Людмила Гурченко, Эдвард Радзинский, Сергей Юрский, Олег Басилашвили, Энтони Эндрюс, Вениамин Смехов, Александр Митта
Описание: Одна из самых любимых передач прошлого, на советском телевидении мало было таких программ, которые притягивали зрителя и не вызывали шквал ядовитой критики после ее окончания. Безусловно, интерес к ней был вызван тем, что она являлась путеводителем в мире большого кино – единственным путеводителем на телевидении, а, поскольку в стране фильмов снималось много, а по ТВ их показывали мало, походы в кинотеатр были излюбленным развлечением и времяпровождением граждан. Сейчас даже представить трудно – какие сумасшедшие очереди стояли в билетных кассах на премьерных показах новых фильмов, о которых уже заранее было известно, что они не могут не понравиться. И известно – как раз из "Кинопанорамы". (Вокруг ТВ)
В этом выпуске гости передачи Татьяна Доронина и Наталья Гундарева отвечают на вопрос: "Что вас больше всего тревожит, кажется опасным в нашей жизни?" Вы увидите сюжет об обсуждении фильма "Делай – раз!"; побываете на съемочной площадке фильма "Охота в раю запрещена" и встретитесь с исполнительницей главной роли - Людмилой Гурченко; вместе с Эдвардом Радзинским вспомните Георгия Товстоногова, художественного руководителя ленинградского БДТ; побываете на обсуждении фильма Сергея Юрского "Чернов – Чернов"; на съемочной площадке фильма Александра Митты "Затерянный в Сибири" встретитесь с прославленным английским актером Энтони Эндрюсом; в сюжете о режиссере Александре Митте вспомните лучшие его фильмы; увидите интервью с режиссером Михаилом Швейцером.
Доп. информация: запись со спутника (канал "Ностальгия").
Сэмпл: http://multi-up.com/881987
Качество: DVB
Формат: MPEG-PS (См. при проблемах с просмотром видео)
Видео кодек: MPEG2
Аудио кодек: MP2
Видео: MPEG Video 2, 720x576@768x576 (4:3), 25 fps, ~4800 kbps avg, 0.463 bit/pixel
Аудио: 48 kHz, MPEG Audio 2, 2 ch, ~192.00 kbps avg

MediaInfo

Полное имя                               : H:\My Torrents\[apreder]Kinopanorama(1990)\[apreder]Kinopanorama_Pt.1(1990)DVB.mpg
Формат : MPEG-PS
Размер файла : 1,66 Гбайт
Продолжительность : 46 м.
Режим общего битрейта : Переменный
Общий поток : 5093 Кбит/сек
Видео
Идентификатор : 224 (0xE0)
Формат : MPEG Video
Версия формата : Version 2
Профиль формата : Main@Main
Параметр BVOP формата : Да
Параметр матрицы формата : Выборочная
Параметр GOP формата : Variable
Продолжительность : 46 м.
Вид битрейта : Переменный
Битрейт : 4800 Кбит/сек
Ширина : 720 пикселей
Высота : 576 пикселей
Соотношение сторон : 4:3
Частота кадров : 25,000 кадров/сек
Стандарт вещания : PAL
Цветовое пространство : YUV
Субдискретизация насыщенности : 4:2:0
Битовая глубина : 8 бит
Тип развёртки : Чересстрочная
Порядок развёртки : Верхнее поле первое
Метод сжатия : С потерями
Бит/(Пиксели*Кадры) : 0.463
TimeCode_FirstFrame : 00:00:00:00
TimeCode_Source : Group of pictures header
Размер потока : 1,57 Гбайт (94%)
Аудио
Идентификатор : 192 (0xC0)
Формат : MPEG Audio
Версия формата : Version 1
Профиль формата : Layer 2
Продолжительность : 46 м.
Вид битрейта : Постоянный
Битрейт : 192 Кбит/сек
Каналы : 2 канала
Частота : 48,0 КГц
Метод сжатия : С потерями
Размер потока : 64,2 Мбайт (4%)

Скриншоты


Скриншоты анаморфированные


-835/817√
[teatrix.ru].t17187.torrent 
Торрент: Зарегистрирован [ 2016-03-17 00:52 ] · 23B575E8F5B7DEF16DD62D38BDA986F9EE5EEC38

Скачать .torrent

Скачать

16 KB

Статус: проверено
Скачан: 0 раз
Размер: 3.1 GB
terms.php



Показать сообщения:    

Текущее время: 09-Дек 20:30

Часовой пояс: UTC + 3


Вы не можете начинать темы
Вы не можете отвечать на сообщения
Вы не можете редактировать свои сообщения
Вы не можете удалять свои сообщения
Вы не можете голосовать в опросах
Вы не можете прикреплять файлы к сообщениям
Вы можете скачивать файлы