(Classical) Christian Gerhaher - Ferne Geliebte: Beethoven, Berg, Haydn, Schoenberg - Gerold Huber - 2012, FLAC (image+.cue) lossless


 

[Цитировать]

Christian Gerhaher - Ferne Geliebte: Beethoven, Berg, Haydn, Schoenberg - Gerold Huber
Жанр: Classical
Год издания диска: 2012
Издатель (лейбл): Sony Classical
Дата записи: 2012
Аудиокодек: FLAC
Тип рипа: image+.cue
Битрейт аудио: lossless
Продолжительность: 67:06
Источник: собственный рип
Наличие сканов в содержимом раздачи: да
Треклист:
Ludwig van Beethoven (1770-1827)
[1] An die ferne Geliebte, Op. 98 (Alois Jeitteles)
Arnold Schönberg (1874-1951)
[2]-[16] Das Buch der hängenden Gärten, Op. 15 (Stefan George)
Joseph Haydn (1732-1809)
[17] Trost unglücklicher Liebe, Hob. XXVIa, No.9
[18] Geistliches Lied, Hob. XXVIa, No.17
[19] Das Leben ist ein Traum, Hob. XXVIa, No.21 (Johann Wilhelm Ludwig Gleim)
Alban Berg (1885-1935)
[20]-[24] Fünf Orchesterlieder nach Ansichtskartentexten von Peter Altenberg, Op. 4
Ludwig van Beethoven
[25] Adelaide, Op. 46 (Friedrich von Matthisson)
Исполнители:
Christian Gerhaher baritone
Gerold Huber piano

Лог создания рипа

Exact Audio Copy V1.0 beta 3 from 29. August 2011
EAC extraction logfile from 17. June 2013, 16:33
Christian Gerhaher, Gerold Huber / Ferne Geliebte
Used drive : HL-DT-STDVDRRW GWA-4164B Adapter: 5 ID: 0
Read mode : Secure
Utilize accurate stream : Yes
Defeat audio cache : Yes
Make use of C2 pointers : No
Read offset correction : 102
Overread into Lead-In and Lead-Out : No
Fill up missing offset samples with silence : Yes
Delete leading and trailing silent blocks : No
Null samples used in CRC calculations : Yes
Used interface : Native Win32 interface for Win NT & 2000
Used output format : User Defined Encoder
Selected bitrate : 896 kBit/s
Quality : High
Add ID3 tag : No
Command line compressor : C:\Program Files\Exact Audio Copy\FLAC\FLAC.EXE
Additional command line options : -V -8 %source%
TOC of the extracted CD
Track | Start | Length | Start sector | End sector
---------------------------------------------------------
1 | 0:00.00 | 13:36.41 | 0 | 61240
2 | 13:36.41 | 2:07.48 | 61241 | 70813
3 | 15:44.14 | 1:15.09 | 70814 | 76447
4 | 16:59.23 | 1:40.63 | 76448 | 84010
5 | 18:40.11 | 1:26.67 | 84011 | 90527
6 | 20:07.03 | 1:01.01 | 90528 | 95103
7 | 21:08.04 | 1:06.20 | 95104 | 100073
8 | 22:14.24 | 0:49.31 | 100074 | 103779
9 | 23:03.55 | 0:45.26 | 103780 | 107180
10 | 23:49.06 | 1:22.47 | 107181 | 113377
11 | 25:11.53 | 2:07.60 | 113378 | 122962
12 | 27:19.38 | 2:50.34 | 122963 | 135746
13 | 30:09.72 | 2:02.12 | 135747 | 144908
14 | 32:12.09 | 1:30.57 | 144909 | 151715
15 | 33:42.66 | 0:51.01 | 151716 | 155541
16 | 34:33.67 | 4:28.10 | 155542 | 175651
17 | 39:02.02 | 3:34.25 | 175652 | 191726
18 | 42:36.27 | 3:08.59 | 191727 | 205885
19 | 45:45.11 | 3:50.59 | 205886 | 223194
20 | 49:35.70 | 2:57.50 | 223195 | 236519
21 | 52:33.45 | 1:22.50 | 236520 | 242719
22 | 53:56.20 | 1:33.15 | 242720 | 249709
23 | 55:29.35 | 1:46.52 | 249710 | 257711
24 | 57:16.12 | 3:52.12 | 257712 | 275123
25 | 61:08.24 | 5:57.51 | 275124 | 301949
Range status and errors
Selected range
Filename D:\temp\Music\Ferne Geliebte - Christian Gerhaher\Ferne Geliebte.wav
Peak level 97.3 %
Extraction speed 3.0 X
Range quality 100.0 %
Test CRC 62A40A5A
Copy CRC 62A40A5A
Copy OK
No errors occurred
AccurateRip summary
Track 1 accurately ripped (confidence 2) [FA55C599] (AR v1)
Track 2 accurately ripped (confidence 2) [5B4D1CFF] (AR v1)
Track 3 accurately ripped (confidence 2) [160AAD0F] (AR v1)
Track 4 accurately ripped (confidence 2) [B38FB94C] (AR v1)
Track 5 accurately ripped (confidence 2) [F7B1E02A] (AR v1)
Track 6 accurately ripped (confidence 2) [B402F071] (AR v1)
Track 7 accurately ripped (confidence 2) [84D3E661] (AR v1)
Track 8 accurately ripped (confidence 2) [60104FDA] (AR v1)
Track 9 accurately ripped (confidence 2) [CC68C27B] (AR v1)
Track 10 accurately ripped (confidence 2) [BA4F2C67] (AR v1)
Track 11 accurately ripped (confidence 2) [3C3F8FFB] (AR v1)
Track 12 accurately ripped (confidence 2) [CA231F4D] (AR v1)
Track 13 accurately ripped (confidence 2) [4F9DA1F3] (AR v1)
Track 14 accurately ripped (confidence 2) [6A044469] (AR v1)
Track 15 accurately ripped (confidence 2) [89502F2A] (AR v1)
Track 16 accurately ripped (confidence 2) [9ACB1AAD] (AR v1)
Track 17 accurately ripped (confidence 2) [7744FC81] (AR v1)
Track 18 accurately ripped (confidence 2) [183EA9A3] (AR v1)
Track 19 accurately ripped (confidence 2) [1D9E618D] (AR v1)
Track 20 accurately ripped (confidence 2) [50397DC4] (AR v1)
Track 21 accurately ripped (confidence 2) [BE69937C] (AR v1)
Track 22 accurately ripped (confidence 2) [7B7CFCAD] (AR v1)
Track 23 accurately ripped (confidence 2) [0EE34A42] (AR v1)
Track 24 accurately ripped (confidence 2) [8E5242E5] (AR v1)
Track 25 accurately ripped (confidence 2) [E1E932D5] (AR v1)
All tracks accurately ripped
End of status report
==== Log checksum 4CE8E6961D6FCD3C0539DBECEE1B833A623D2273F45E7F311AFD0A5AA5C4A271 ====



Показать сообщения:    

Текущее время: 08-Дек 14:55

Часовой пояс: UTC + 3


Вы не можете начинать темы
Вы не можете отвечать на сообщения
Вы не можете редактировать свои сообщения
Вы не можете удалять свои сообщения
Вы не можете голосовать в опросах
Вы не можете прикреплять файлы к сообщениям
Вы не можете скачивать файлы