Международная фитнес конвенция I.T.S. 2007 / I.T.S. International fitness convention NSK 2007 [2007, конвенция, DVDRip, RUS/ENG]


Статистика раздачи [Обновить пиров]
Размер:  1.36 GB   |    Зарегистрирован:  8 месяцев 20 дней   |    Скачан:  0 раз

Полного источника не было: Никогда

Личеров:  45  [  0 KB/s  ]   Подробная статистика пиров
 
   
 
 
 

[Цитировать]

I.T.S. International fitness convention NSK 2007

Международная фитнес конвенция I.T.S. 2007
-
Год выпуска: 2007
Страна: Россия
Жанр: фитнес конвенция
Продолжительность: 03:16:24
Язык: Русский/Английский
Перевод: Любительский одноголосый-Описание:
24 - 25 ноября 2007 в Новосибирске в спортивном комплексе 'Север' прошла Международная фитнес-конвенция ITS '07. Об этом сообщает компания Instructor Training School. В гостях у Новосибирска находились мировые топ-презенторы Marc-Oliver Kluike (Германия), Julian Crespo (Испания), Jean­-Brice Panza (Франция)­, Balazs Fozessy (Венгрия), Didier Muamba (Бельгия) и другие...- Jean­-Brice Panza (Франция) - JB STEP REVE­OLUTION - 46:39
«Золотой мальчик» французской аэробики. Чемпион Франции по спортивной аэробике. Один из немногих, кому удается совмещать карьеру презентора, модели, а также успевать создавать свою линию одежды для фитнеса. Вы увидите невообразимый французский шарм в совокупности с потрясающей нацеленностью на результат. Прекрасно сбалансированный, симметричный, и наконец фантастически интересный степ класс, в котором Жан Бри продемострирует легкость общения с хореографией и битами, а также успеет зарядить тебя своей энергией.- Julian Crespo (Испания) - STEP UP - 36:48
Самая утренняя и самая креативная хореография которая разбудит и изменит тебя. Пришло время перестать бояться продвинутой хореографии. Поднимайся на степ с Джулианом и никогда не оглядывайся назад! Неизменный участник всех громких фитнес тусовок во всех уголках Европы. Золотой призер конкурса SHOOTING STAR EUROPE 2004,2005. «Хаос», который царит на сцене во время его выступлений, и latin классов особенно, очень сильно повлияет на Ваши представления об аэробике (в хорошем смысле )- Варвара Медведева (Россия)­ - POWER YOGA advanced - 26:19
Основатель Школы инструкторов аэробики Варвары Медведевой­ ITS. С каждым годом, все больше городов и регионов России и СНГ присоединяются к фитнес­ движению ITS. Благодаря Варваре, стандарты качества обучения Школы остаются на неизменно высочайшем уровне.Не останавливаясь на достигнутом, Варвара представляет на конвенции новую программу в учебном плане ITS­ POWER YOGA. Правильные средства столь же важны, как и конечная цель. Power Yoga дает нам возможность достичь крепости тела, стабильности ума и ясного мышления. Столько, сколько проявлений функций и свойств имеют тело, разум чувства, столько же существует путей в йоге. Power Yoga­ еще один современный взгляд на йогу, направленный прежде всего на укрепление здоровья, снятии усталости и успокоении нервной системы. Участникам мастерклассов будут предложены асаны с различными вариациями и комбинациями, которые подойдут клиентам как начального, так и очень продвинутого уровней.- Ricardo Queiroz (Бразилия) - Capoera workshop - 44:09
Профессор капоэйры. Занимается более 20 лет. Еще один специальный подарок от компании ITS для профессионалов, которые хотят знать ВСЕ обо всем.
Научись пластично двигаться, выполнять акробатические эллементы в боевом танце......Капоейра ­ это афро­бразильская культура которая сложилась из культур многих африканских и бразильских племен. В Бразилии капоейра стала неотъемлемой частью культуры. Сейчас она преподается в военных академиях, школах и университетах. Для нас капоейра это серьезная дисциплина позволяющая человеку совершенствоваться... На этом whorkshop Вас ждут серьезная физ подготовка, грамотные основы акробатики (в том числе, по желанию, фляг и сальто), танцевальные движения,боевые удары и растяжка...-STEP Team Teach ITS girls - 42:04
Специальный подарок в честь 5-летия фитнес конвенции ITS в Новосибирске! Четыре мастеркласса от российской и международной команды презенторов. Это не соревнование, это возможность увидеть все лучшее в танцевальной аэробике и в танцевальном степе в исполнении сильной и “слабой” половины человечества. Команда ITS girls сделает все возможное, чтобы эмоции и тепло этих классов надолго остались в твоей памяти.-Будь лучшим, обучаясь у лучших!Качество: DVDRip
Формат: AVI 1.0 (VFW 1.1)
Видео кодек: XviD build 50
Аудио кодек: MPEG Layer 3
Видео: XviD, 608 x 336, 16/9, 854 Kbps, 25.000 fps, 0.167 b/px
Аудио: MPEG-1 Audio layer 3, 128 Kbps, CBR, 48.0 KHz, 2 ch.
Спасибо sval1 за DVD5

Скриншоты видеоJean-Brice Panza (Франция)­ - JB STEP REVE­OLUTION

Julian Crespo (Испания) - STEP UP

Варвара Медведева (Россия)­ - POWER YOGA advanced

Ricardo (Бразилия) - CAPOERA Workshop

STEP Team Teach ITS girls

MediaInfoMediaInfo DVDRip

Complete name                    : Международная фитнес конвенция I.T.S. 2007.avi
Format                           : AVI
Format/Info                      : Audio Video Interleave
File size                        : 1.37 GiB
Duration                         : 3h 17mn
Overall bit rate                 : 992 Kbps
Writing application              : VirtualDubMod 1.5.10.2 (build 2540/release)
Writing library                  : VirtualDubMod build 2540/release
[br]
Video
ID                               : 0
Format                           : MPEG-4 Visual
Format profile                   : Advanced Simple@L5
Format settings, BVOP            : Yes
Format settings, QPel            : No
Format settings, GMC             : No warppoints
Format settings, Matrix          : Custom
Codec ID                         : XVID
Codec ID/Hint                    : XviD
Duration                         : 3h 17mn
Bit rate                         : 854 Kbps
Width                            : 608 pixels
Height                           : 336 pixels
Display aspect ratio             : 16:9
Frame rate                       : 25.000 fps
Color space                      : YUV
Chroma subsampling               : 4:2:0
Bit depth                        : 8 bits
Scan type                        : Progressive
Bits/(Pixel*Frame)               : 0.167
Stream size                      : 1.18 GiB (86%)
Writing library                  : XviD 1.2.1 (UTC 2008-12-04)
[br]
Audio
ID                               : 1
Format                           : MPEG Audio
Format version                   : Version 1
Format profile                   : Layer 3
Mode                             : Joint stereo
Mode extension                   : MS Stereo
Codec ID                         : 55
Codec ID/Hint                    : MP3
Duration                         : 3h 16mn
Bit rate mode                    : Constant
Bit rate                         : 128 Kbps
Channel(s)                       : 2 channels
Sampling rate                    : 48.0 KHz
Stream size                      : 180 MiB (13%)
Alignment                        : Aligned on interleaves
Interleave, duration             : 40 ms (1.00 video frame)
Interleave, preload duration     : 504 ms

MediaInfo DVD

Complete name                    : ITSCONVENTION Новосибирск2007\VIDEO_TS\VTS_01_1.VOB
Format                           : MPEG-PS
File size                        : 1 024 MiB
Duration                         : 15mn 44s
Overall bit rate                 : 9 093 Kbps
[br]
Video
ID                               : 224 (0xE0)
Format                           : MPEG Video
Format version                   : Version 2
Format profile                   : Main@Main
Format settings, BVOP            : Yes
Format settings, Matrix          : Default
Format settings, GOP             : M=3, N=12
Duration                         : 15mn 44s
Bit rate mode                    : Variable
Bit rate                         : 8 500 Kbps
Width                            : 720 pixels
Height                           : 576 pixels
Display aspect ratio             : 16:9
Frame rate                       : 25.000 fps
Standard                         : PAL
Color space                      : YUV
Chroma subsampling               : 4:2:0
Bit depth                        : 8 bits
Scan type                        : Interlaced
Scan order                       : Top Field First
Bits/(Pixel*Frame)               : 0.820
Stream size                      : 978 MiB (96%)
[br]
Audio
ID                               : 192 (0xC0)
Format                           : MPEG Audio
Format version                   : Version 1
Format profile                   : Layer 2
Mode                             : Joint stereo
Mode extension                   : Intensity Stereo + MS Stereo
Duration                         : 15mn 43s
Bit rate mode                    : Constant
Bit rate                         : 224 Kbps
Channel(s)                       : 2 channels
Sampling rate                    : 48.0 KHz
Stream size                      : 25.2 MiB (2%)
[br]
Menu
[teatrix.ru].t17210.torrent 
Торрент: Зарегистрирован [ 2016-03-17 00:56 ] · 7D3BAB33CD8D2C5FF54B202688BA51DB81E4391A

Скачать .torrent

Скачать

14 KB

Статус: проверено
Скачан: 0 раз
Размер: 1.36 GB
terms.php



Быстрый ответ

Имя:

      
Для отправки сообщений необходимо включить JavaScript
Показать сообщения:    

Текущее время: 06-Дек 22:56

Часовой пояс: UTC + 3


Вы можете начинать темы
Вы можете отвечать на сообщения
Вы не можете редактировать свои сообщения
Вы не можете удалять свои сообщения
Вы не можете голосовать в опросах
Вы не можете прикреплять файлы к сообщениям
Вы можете скачивать файлы