(Classical, canzoni napoletane / неаполитанские песни, romance) Anna Caterina Antonacci & Donald Sulzen - L'alba separa dalla luce l'ombra [Hahn, Tosti, Cilea, Refice, Cesti, Respighi] - 2012, FLAC (image+.cue) lossless


 

[Цитировать]


Жанр: Classical, canzoni napoletane
Страна-производитель диска: England
Год издания диска: 2012
Издатель (лейбл): Wigmore Hall
Номер по каталогу: 54
Аудиокодек: FLAC
Тип рипа: image+.cue
Битрейт аудио: lossless
Продолжительность: 00:50:28
Источник: собственный рип
Наличие сканов в содержимом раздачи: только буклет
Треклист:
01. Sopra L'Acqua Indormenzada
02. La Barcheta
03. L'Avertimento
04. La Biondina In Gondoleta
05. Che Peca!
06. Lasciami! Lascia Ch'Io Respiri
07. L'Alba Separa Dalla Luce L'Ombra
08. In Van Preghi
09. Che Dici, O Parola Del Saggio?
10. Serenata
11. Nel Ridestarmi
12. Non Ti Voglio Amar
13. Ombra Di Nube
14. Intorno All'idol Mio
15. Sopra Un'Aria Antica
16. Marechiare
Исполнители:
Anna Caterina Antonacci (soprano)
Donald Sulzen (piano)

Несколько песен, которые исполнялись в рамках этого концертного цикла, но не вошли в данный альбом

Pietro Mascagni: L'amico Fritz - Son pochi fiori
Henry Mancini: Moon river
Ottorino Respighi: Tre canti all'antica
Pieradolfo Tirindelli: Amor, amor!
Pietro Cimara: Scherzo Ballade
Arturo Toscanini: Nevrosi
Gabriel Fauré

Лог создания рипа

Exact Audio Copy V1.0 beta 3 from 29. August 2011
Отчёт EAC об извлечении, выполненном 30. июня 2013, 23:19
Anna Caterina Antonacci / L'alba separa dalla luce l'ombra
Дисковод: _NEC DVD_RW ND-4550A Adapter: 0 ID: 0
Режим чтения : Достоверность
Использование точного потока : Да
Отключение кэша аудио : Да
Использование указателей C2 : Нет
Коррекция смещения при чтении : 48
Способность читать области Lead-in и Lead-out : Нет
Заполнение пропущенных сэмплов тишиной : Да
Удаление блоков с тишиной в начале и конце : Нет
При вычислениях CRC использовались нулевые сэмплы : Да
Интерфейс : Встроенный Win32-интерфейс для Win NT/2000
Выходной формат : Пользовательский кодировщик
Выбранный битрейт : 128 kBit/s
Качество : Высокий
Добавление ID3-тега : Нет
Утилита сжатия : C:\Program Files\Exact Audio Copy\Flac\flac.exe
Дополнительные параметры : -V -8 -T "Date=%year%" -T "Genre=%genre%" %source%
TOC извлечённого CD
Трек | Старт | Длительность | Начальный сектор | Конечный сектор
---------------------------------------------------------------------
1 | 0:00.00 | 3:45.66 | 0 | 16940
2 | 3:45.66 | 3:02.48 | 16941 | 30638
3 | 6:48.39 | 1:46.40 | 30639 | 38628
4 | 8:35.04 | 4:03.40 | 38629 | 56893
5 | 12:38.44 | 2:42.57 | 56894 | 69100
6 | 15:21.26 | 3:27.06 | 69101 | 84631
7 | 18:48.32 | 1:52.18 | 84632 | 93049
8 | 20:40.50 | 2:10.62 | 93050 | 102861
9 | 22:51.37 | 5:04.47 | 102862 | 125708
10 | 27:56.09 | 2:21.46 | 125709 | 136329
11 | 30:17.55 | 2:27.61 | 136330 | 147415
12 | 32:45.41 | 2:16.04 | 147416 | 157619
13 | 35:01.45 | 2:51.08 | 157620 | 170452
14 | 37:52.53 | 2:51.50 | 170453 | 183327
15 | 40:44.28 | 5:34.33 | 183328 | 208410
16 | 46:18.61 | 4:10.08 | 208411 | 227168
Характеристики диапазона извлечения и сообщения об ошибках
Выбранный диапазон
Имя файла D:\Anna Caterina Antonacci - L'alba separa dalla luce l'ombra.wav
Пиковый уровень 95.4 %
Скорость извлечения 7.2 X
Качество диапазона 100.0 %
CRC теста 0A5C0E3E
CRC копии 0A5C0E3E
Копирование... OK
Ошибок не произошло
Конец отчёта
Другие варианты раздач этого альбома:
mp3, 320 kbps
Первый сольный альбом Анны Катерины "Era la notte" (2006):
LOSSLESS | mp3, 320 kbps
-По поводу исчезнувших картинок/скриншотов и возобновления раздачи, если сидеров совсем нет, пишите в комментариях.--



Показать сообщения:    

Текущее время: 05-Дек 23:41

Часовой пояс: UTC + 3


Вы не можете начинать темы
Вы не можете отвечать на сообщения
Вы не можете редактировать свои сообщения
Вы не можете удалять свои сообщения
Вы не можете голосовать в опросах
Вы не можете прикреплять файлы к сообщениям
Вы не можете скачивать файлы