(Vocal / Lyric Monodrama) Berlioz - Lelio oder Die Ruckkehr ins Leben / Lelio ou Le Retour a la vie (Rabsilber, Grabowski, Minetti - Reuter 1988) - 1994, APE (image+.cue) lossless


 

[Цитировать]

Berlioz - Lélio oder Die Rückkehr ins Leben (Rabsilber, Grabowski, Minetti - Reuter 1988)
Жанр: Vocal / Lyric Monodrama
Страна-производитель диска: Germany
Год издания диска: 1994
Издатель (лейбл): Berlin Classics
Номер по каталогу: BC 2149-2
Дата записи: 1988
Аудиокодек: APE
Тип рипа: image+.cue
Битрейт аудио: lossless
Продолжительность: 64'00
Источник: собственный рип
Наличие сканов в содержимом раздачи: да
Треклист
01 Gott ich lebe noch!
02 I. Der Fischer
03 Seltsame Beharrlichkeit...
04 II. Geisterchor
05 O Shakespeare!
06 III. Räuberlied
07 Wie irrt mein Geist....
08 IV. Gesang vom Glück
09 O warum ist es mir versagt....
10 V. Die Äolsharfe. Erinnerungen
11 Doch warum gebe ich mich....
12 VI. Fantasie über Shakespeares 'Sturm'Исполнители
Hector Berlioz - Lélio oder Die Rückkehr ins Leben (Lélio ou Le Retour à la vie)
Michael Rabsilber, tenor
Bernd Grabowski, bass-baritone
Hans-Peter Minetti, speaker
Rundfunkchor Berlin
Orchester der Komischen Oper Berlin
Rolf Reuter

Лог создания рипа

Exact Audio Copy V1.0 beta 3 from 29. August 2011
EAC extraction logfile from 24. June 2013, 1:08
Berlioz / Lélio oder Die Rückkehr ins Leben, Reuter 1988
Used drive : TSSTcorpCDDVDW SE-208AB Adapter: 1 ID: 0
Read mode : Secure
Utilize accurate stream : Yes
Defeat audio cache : Yes
Make use of C2 pointers : No
Read offset correction : 6
Overread into Lead-In and Lead-Out : No
Fill up missing offset samples with silence : Yes
Delete leading and trailing silent blocks : No
Null samples used in CRC calculations : Yes
Used interface : Native Win32 interface for Win NT & 2000
Used output format : Monkey's Audio Lossless Encoder
Selected bitrate : High Lossless Compression
Quality : High
Add ID3 tag : Yes
Command line compressor : K:\Program Files (x86)\Exact Audio Copy\Monkeys Audio\Monkey's Audio\MAC.exe
Additional command line options : -6 -V -T "ARTIST=%artist%" -T "TITLE=%title%" -T "ALBUM=%albumtitle%" -T "DATE=%year%" -T "TRACKNUMBER=%tracknr%" -T "GENRE=%genre%" -T "COMMENT=%comment%" -T "BAND=%albuminterpret%" -T "ALBUMARTIST=%albuminterpret%" -T "COMPOSER=%composer%" %haslyrics%--tag-from-file=LYRICS="%lyricsfile%"%haslyrics% -T "DISCNUMBER=%cdnumber%" -T "TOTALDISCS=%totalcds%" -T "TOTALTRACKS=%numtracks%" %hascover%--picture="%coverfile%"%hascover% %source% -o %dest%
TOC of the extracted CD
Track | Start | Length | Start sector | End sector
---------------------------------------------------------
1 | 0:00.00 | 4:19.30 | 0 | 19454
2 | 4:19.30 | 5:53.22 | 19455 | 45951
3 | 10:12.52 | 3:07.10 | 45952 | 59986
4 | 13:19.62 | 6:37.65 | 59987 | 89826
5 | 19:57.52 | 4:03.25 | 89827 | 108076
6 | 24:01.02 | 4:21.30 | 108077 | 127681
7 | 28:22.32 | 2:23.45 | 127682 | 138451
8 | 30:46.02 | 6:07.00 | 138452 | 165976
9 | 36:53.02 | 1:54.23 | 165977 | 174549
10 | 38:47.25 | 3:10.15 | 174550 | 188814
11 | 41:57.40 | 5:09.70 | 188815 | 212059
12 | 47:07.35 | 16:44.22 | 212060 | 287381
Range status and errors
Selected range
Filename I:\Foobar-EAC\Berlioz - Lélio oder Die Rückkehr ins Leben, Reuter 1988.wav
Peak level 97.7 %
Extraction speed 2.0 X
Range quality 100.0 %
Test CRC 35A3EA52
Copy CRC 35A3EA52
Copy OK
No errors occurred
AccurateRip summary
Track 1 not present in database
Track 2 not present in database
Track 3 not present in database
Track 4 not present in database
Track 5 not present in database
Track 6 not present in database
Track 7 not present in database
Track 8 not present in database
Track 9 not present in database
Track 10 not present in database
Track 11 not present in database
Track 12 not present in database
None of the tracks are present in the AccurateRip database
End of status report
==== Log checksum 3C893E6A6FB6E29AD4A2722490374166F46FCD82B074D8D4B169376CAE31C110 ====

Содержание индексной карты (.CUE)

REM GENRE Opera
REM DATE 1988
REM DISCID A00EF70C
REM COMMENT "ExactAudioCopy v1.0b3"
PERFORMER "Berlioz"
TITLE " Lélio oder Die Rückkehr ins Leben, Reuter 1988"
FILE "Berlioz - Lélio oder Die Rückkehr ins Leben, Reuter 1988.ape" WAVE
TRACK 01 AUDIO
TITLE "Gott ich lebe noch"
PERFORMER "Berlioz"
INDEX 01 00:00:00
TRACK 02 AUDIO
TITLE "I. Der Fischer"
PERFORMER "Berlioz"
INDEX 00 04:18:07
INDEX 01 04:19:30
TRACK 03 AUDIO
TITLE "Seltsame Beharrlichkeit"
PERFORMER "Berlioz"
INDEX 01 10:12:52
TRACK 04 AUDIO
TITLE "II. Geisterchor"
PERFORMER "Berlioz"
INDEX 01 13:19:62
TRACK 05 AUDIO
TITLE "O Shakespeare"
PERFORMER "Berlioz"
INDEX 00 19:56:15
INDEX 01 19:57:52
TRACK 06 AUDIO
TITLE "III. Räuberlied"
PERFORMER "Berlioz"
INDEX 01 24:01:02
TRACK 07 AUDIO
TITLE "Wie irrt mein Geist"
PERFORMER "Berlioz"
INDEX 00 28:20:05
INDEX 01 28:22:32
TRACK 08 AUDIO
TITLE "IV. Gesang vom Glück"
PERFORMER "Berlioz"
INDEX 00 30:44:72
INDEX 01 30:46:02
TRACK 09 AUDIO
TITLE "O warum ist es mir versagt"
PERFORMER "Berlioz"
INDEX 00 36:50:20
INDEX 01 36:53:02
TRACK 10 AUDIO
TITLE "V. Die Äolsharfe. Erinnerungen"
PERFORMER "Berlioz"
INDEX 00 38:45:65
INDEX 01 38:47:25
TRACK 11 AUDIO
TITLE "Doch warum gebe ich mich"
PERFORMER "Berlioz"
INDEX 00 41:55:07
INDEX 01 41:57:40
TRACK 12 AUDIO
TITLE "Fantasie über Shakespeaes 'Sturm'"
PERFORMER "Berlioz"
INDEX 00 47:05:62
INDEX 01 47:07:35



Показать сообщения:    

Текущее время: 19-Янв 16:03

Часовой пояс: UTC + 3


Вы не можете начинать темы
Вы не можете отвечать на сообщения
Вы не можете редактировать свои сообщения
Вы не можете удалять свои сообщения
Вы не можете голосовать в опросах
Вы не можете прикреплять файлы к сообщениям
Вы не можете скачивать файлы