Susan Fulton (Sue Fuller) - Power Yoga [2001, фитнес, йога, DVDRip, ENG] (Видеоуроки)


Статистика раздачи [Обновить пиров]
Размер:  788 MB   |    Зарегистрирован:  10 месяцев 3 дня   |    Скачан:  0 раз

Полного источника не было: Никогда

Личеров:  19  [  0 KB/s  ]   Подробная статистика пиров
 
   
 
 
 

[Цитировать]

Susan Fulton - Power Yoga

Ashtanga Yoga for Strength & Toning - Healthy Living Series
- Год выпуска: 2001
Страна: UK
Жанр: Фитнес, Йога
Продолжительность: 60:08
Язык: Английский
Перевод: Отсутствует
-Описание:
Comprehensive routines and sequences of Ashtanga Yoga including the famous Sun Salutation and Warrior postures. Susan Fulton is an established, successful presenter of many programmes in the Healthy Living series. Susan Fulton's Power Yoga is launched amid much competition. With stars such as Madonna and Geri Halliwell forsaking the gym and turning to yoga, it's inevitable that everyone is jumping on the yoga bandwagon. Setting out to provide a basis for strength, body toning and emotional balance, Power Yoga, based on a more form of yoga known as Ashtanga, suggests that this is for people with a serious interest. But you could easily mistake this as a rather dull promo of a deserted Lanzarote beach. In terms of the yoga tuition itself, what this amounts to is the equivalent of a decent yoga class in a local community centre. All the postures are there but without the punch, oomph and glamour associated with power yoga. The whistling wind-type soundtrack is relaxing, but hardly conducive to the spirit of what is often described as aerobic yoga.
Teacher Susan Fulton would have been ideal to present a beginners session for yogaphobes, but in this contrived scenario her unimposing manner becomes unimpressive. And cruel though it may be, with the amount of successful yoga training sessions on the market, Fulton just doesn't cut it.
This video guides you through a relatively basic yoga workout, with a well designed sequence of moderately challenging postures. The video begins with Susan Fulton lying on the beach, talking us through some gentle stretches designed to get us moving. There follows an eight minute sequence of standing stretches before the sun salutation, two repetitions on each side. Further standing postures begin with tree balance, followed by triangle, side angle bend and forward bends. Thirty minutes into the video we go into warrior sequence, which includes warrior I and II and some leg stretches.
The seated sequence includes forward and backward bends, some spinal twists and leg stretches before moving into cat, dog and child's pose. The active part of this video finishes with the dog balance pose illustrated on the video cover, followed by five minute of lying down twists and relaxation. During most of this video, Susan Fulton gives guidance on how to co-ordinate movement with breath and where to direct your concentration. The instructions are delivered as a talk over, which is concise and well thought out. Additional guidance is given during the poses and often manages to identify the area in which a beginner is likely to be experiencing problems, suggesting a remedy or compromise. There is also a four minute "Breath and movement sequence", for those without the time to use the whole video.
The scenery is lovely, being set both on the beach and in some arid areas of Lanzarote. It may be incorrect to call it "Power" yoga, as many of the poses use modifications for beginners. The triangle for instance shows one hand resting above or below your knee. These relatively modest demands make the video accessible to everyone and an excellent routine for beginners.
Level: Beginner / Inter
--
Качество: DVDRip
Формат: AVI 1.0 (VFW 1.1)
Видео кодек: XviD MPEG-4
Аудио кодек: MPEG Layer 3
Видео: XviD, 640 x 480, 4/3, 1 722 Kbps, 25.000 fps, 0.224 b/px
Аудио: MPEG-1 Audio layer 3, 128 Kbps, CBR, 48.0 KHz, 2 ch.
(Постер кликабельный)

Скриншоты видео

Sue Fuller, ранее Susan Fulton
Перечень фрагментов:
01_Introduction and Breathing & Preparation - 07:33
02_Standing Postures - part 1 - 07:29
03_Sun Solutation - 04:45
04_Standing Postures - part 2 - 10:54
05_Warrior Sequence - 03:50
06_Seated Postures - 07:37
07_Kneeling Postures - 04:58
08_Relaxation & Breathing - 05:30
09_ Bonus - Daily Sequence - 05:26
При желании Вы можете составить СВОЮ собственную тренировку!
Для этого Вам нужно только поменять нумерацию видео файлов.
Если нужна будет помощь, пишите в личку. Всегда готова помочь!
Счастливой Вам практики! Намасте!


MediaInfo DVD

Complete name                    : Susan_Fulton_Power_Yoga\VIDEO_TS\VTS_01_1.VOB
Format                           : MPEG-PS
File size                        : 1 024 MiB
Duration                         : 26s 680ms
Overall bit rate                 : 322 Mbps
[br]
Video
ID                               : 224 (0xE0)
Format                           : MPEG Video
Format version                   : Version 2
Format profile                   : Main@Main
Format settings, BVOP            : Yes
Format settings, Matrix          : Default
Format settings, GOP             : M=3, N=12
Duration                         : 26s 680ms
Bit rate mode                    : Variable
Bit rate                         : 315 Mbps
Nominal bit rate                 : 5 000 Kbps
Width                            : 720 pixels
Height                           : 576 pixels
Display aspect ratio             : 4:3
Frame rate                       : 25.000 fps
Standard                         : PAL
Color space                      : YUV
Chroma subsampling               : 4:2:0
Bit depth                        : 8 bits
Scan type                        : Interlaced
Scan order                       : Top Field First
Bits/(Pixel*Frame)               : 30.392
Stream size                      : 1 002 MiB (98%)
[br]
Audio
ID                               : 128 (0x80)
Format                           : AC-3
Format/Info                      : Audio Coding 3
Mode extension                   : CM (complete main)
Duration                         : 26s 432ms
Bit rate mode                    : Constant
Bit rate                         : 448 Kbps
Channel(s)                       : 2 channels
Channel positions                : Front: L R
Sampling rate                    : 48.0 KHz
Bit depth                        : 16 bits
Video delay                      : -80ms
Stream size                      : 1.41 MiB (0%)
[br]
Menu
Раздача от группы
[teatrix.ru].t17256.torrent 
Торрент: Зарегистрирован [ 2016-03-17 00:56 ] · BDAC0450AB54C07AB206960867A79F611AB0F31E

Скачать .torrent

Скачать

17 KB

Статус: проверено
Скачан: 0 раз
Размер: 788 MB
terms.php



Быстрый ответ

Имя:

      
Для отправки сообщений необходимо включить JavaScript
Показать сообщения:    

Текущее время: 20-Янв 14:52

Часовой пояс: UTC + 3


Вы можете начинать темы
Вы можете отвечать на сообщения
Вы не можете редактировать свои сообщения
Вы не можете удалять свои сообщения
Вы не можете голосовать в опросах
Вы не можете прикреплять файлы к сообщениям
Вы можете скачивать файлы