Вместе с песней Леонида Утёсова (Владимир Орлов) [1999, Музыкальное ревю, VHSRip]


Статистика раздачи [Обновить пиров]
Размер:  491 MB   |    Зарегистрирован:  8 месяцев 22 дня   |    Скачан:  0 раз

Полного источника не было: Никогда

Личеров:  3  [  0 KB/s  ]   Подробная статистика пиров
 
   
 
 
 

[Цитировать]

Вместе с песней Леонида Утёсова
Год выпуска: 1999
Страна: Беларусь
Жанр: Музыкальное ревю
Продолжительность: 00:32:15
Перевод: Не требуется
Русские субтитры: нет
Режиссер: Владимир Орлов

Описание:
...Наверное, около половины авторских песен 30—60-ых годов стали популярными, «пошли в народ» с голоса Утесова. 750 грамзаписей, 60 лет на сцене по 300 концертов ежегодно — получается, что он выходил на сцену с оркестром более пятнадцати тысяч раз! А радио, а киноконцерты, а телевидение, а фильм «Веселые ребята», у которого нет возраста! Народ эти песни так и называет — «утесовские».
Это явление в мировом музыкальном искусстве! Всего этого было достаточно, чтобы Минский оркестр осуществил постановку музыкального спектакля «Вместе с песней Леонида Утесова» и блестяще, с аншлагами, выступил с ним на «Золотом шлягере-99». Дирижировал оркестром Петр Вандиловский.

Доп. информация: Релиз:
Исходный материал для рипа предоставил некто Андрей
Автор релиза: pmv

Сэмпл: http://www.multiupload.nl/8SS0V5KQZC
качество: VHSRip
формат: AVI
Видео: 720x560 (1.29:1), 25 fps, XviD build 50 ~1990 kbps avg, 0.20 bit/pixel
Аудио: 48 kHz, MPEG Layer 3, 2 ch, ~128.00 kbps avg

Список выпусков/серий

1 серия

MediaInfo

Формат : AVI
Формат/Информация : Audio Video Interleave
Размер файла : 491 Мбайт
Продолжительность : 32 м.
Общий поток : 2128 Кбит/сек
Программа кодирования : VirtualDubMod 1.5.10.3 | www.virtualdub-fr.org || (build 2550/release)
Библиотека кодирования : VirtualDubMod build 2550/release
Видео
Идентификатор : 0
Формат : MPEG-4 Visual
Профиль формата : Advanced Simple@L5
Параметр BVOP формата : 2
Параметр QPel формата : Нет
Параметр GMC формата : Без точки перехода
Параметр матрицы формата : Default (H.263)
Идентификатор кодека : XVID
Идентификатор кодека/Подсказка : XviD
Продолжительность : 32 м.
Битрейт : 1991 Кбит/сек
Ширина : 720 пикселей
Высота : 560 пикселей
Соотношение сторон : 1,286
Частота кадров : 25,000 кадров/сек
Цветовое пространство : YUV
Субдискретизация насыщенности : 4:2:0
Битовая глубина : 8 бит
Тип развёртки : Прогрессивная
Метод сжатия : С потерями
Бит/(Пиксели*Кадры) : 0.197
Размер потока : 459 Мбайт (94%)
Библиотека кодирования : XviD 1.2.1 (UTC 2008-12-04)
Аудио
Идентификатор : 1
Формат : MPEG Audio
Версия формата : Version 1
Профиль формата : Layer 3
Идентификатор кодека : 55
Идентификатор кодека/Подсказка : MP3
Продолжительность : 32 м.
Вид битрейта : Постоянный
Битрейт : 128 Кбит/сек
Каналы : 2 канала
Частота : 48,0 КГц
Метод сжатия : С потерями
Размер потока : 29,5 Мбайт (6%)
Выравнивание : Соединение по промежуткам
Продолжительность промежутка : 40 мс. (1,00 видеокадр)
Время предзагрузки промежутка : 504 мс.
Библиотека кодирования : LAME3.99r
Настройки программы : -m s -V 4 -q 2 -lowpass 17 -b 128

Скриншоты

[teatrix.ru].t17258.torrent 
Торрент: Зарегистрирован [ 2016-03-17 00:52 ] · EC55D3E4B00EE0BF846FB972E5234EE60A67E8F1

Скачать .torrent

Скачать

20 KB

Статус: проверено
Скачан: 0 раз
Размер: 491 MB
terms.php



Быстрый ответ

Имя:

      
Для отправки сообщений необходимо включить JavaScript
Показать сообщения:    

Текущее время: 08-Дек 01:20

Часовой пояс: UTC + 3


Вы можете начинать темы
Вы можете отвечать на сообщения
Вы не можете редактировать свои сообщения
Вы не можете удалять свои сообщения
Вы не можете голосовать в опросах
Вы не можете прикреплять файлы к сообщениям
Вы можете скачивать файлы