Pilates Plus - Ball Band With Dian Ramirez [2001/2006, фитнес, DVDRip, ENG] (Видеоурок)


Статистика раздачи [Обновить пиров]
Размер:  557 MB   |    Зарегистрирован:  8 месяцев 22 дня   |    Скачан:  1 раз

Полного источника не было: 17 часов

Личеров:  29  [  0 KB/s  ]   Подробная статистика пиров
 
   
 
 
 

[Цитировать]

Dian Ramirez

Pilates Plus - Ball Band
- Год выпуска: 2001/2006
Страна: USA
Жанр: фитнес
Продолжительность: 48:06
Язык: Английский
Перевод: Отсутствует
-
Описание:
This workout consists of only Pilates exercises. There is no yoga, ballet or dance movements.
Join Dian Ramirez, Pilates Master Trainer and fitness expert, in this innovative and powerful Pilates workout that will transform your body, safely, effectively and totally. Shot on location at the beautiful beachside Catamaran Resort in Southern California, Dian guides you through a series of resistance and assistance based exercises that will strengthen your upper and lower body, abdominals and back.
Pilates Plus incorporates the use of a ball and exercise band to enhance the effectiveness of the Pilates method while adhering to the principles of movement developed by Joseph Pilates. The program also replicates many of the exercises performed on a Pilates Reformer machine, helping you achieve the benefits of a Reformer workout in an affordable and accessible manner.
Regular workouts with Pilates Plus will increase functional strength and correcf faulty movement patterns, and enhance the way you feel and move through your daily activities. In addition, Pilates Plus:
Strengthens your inner core
Improves posture, balance, and coordination
Lengthens your body for a leaner look
Promotes flexibility, mobility, and injury prevention
Tones your body
Stabilizes the body and facilitates smooth, controlled movements
Maximize your workout with exercises that really work!
--Качество: DVDRip
Формат: AVI 1.0 (VFW 1.1)
Видео кодек: XviD MPEG-4
Аудио кодек: MPEG Layer 3
Видео: XviD, 576 x 432, 4/3, 1 361 Kbps, 23.976 fps, 0.228 b/px
Аудио: MPEG-1 Audio layer 3, 128 Kbps, CBR, 48.0 KHz, 2 ch.

Скриншоты видео

Меню - скриншоты DVD
-

MediaInfo DVD

Complete name                    : Pilates Plus Ball Band\VIDEO_TS\VTS_01_1.VOB
Format                           : MPEG-PS
File size                        : 1 024 MiB
Duration                         : 31mn 56s
Overall bit rate                 : 4 483 Kbps
[br]
Video
ID                               : 224 (0xE0)
Format                           : MPEG Video
Format version                   : Version 2
Format profile                   : Main@Main
Format settings, BVOP            : Yes
Format settings, Matrix          : Default
Format settings, GOP             : M=3, N=15
Duration                         : 31mn 56s
Bit rate mode                    : Variable
Bit rate                         : 4 138 Kbps
Nominal bit rate                 : 8 760 Kbps
Width                            : 720 pixels
Height                           : 480 pixels
Display aspect ratio             : 16:9
Frame rate                       : 29.970 fps
Standard                         : NTSC
Color space                      : YUV
Chroma subsampling               : 4:2:0
Bit depth                        : 8 bits
Scan type                        : Interlaced
Scan order                       : Top Field First
Bits/(Pixel*Frame)               : 0.400
Stream size                      : 945 MiB (92%)
[br]
Audio
ID                               : 128 (0x80)
Format                           : AC-3
Format/Info                      : Audio Coding 3
Mode extension                   : CM (complete main)
Duration                         : 31mn 55s
Bit rate mode                    : Constant
Bit rate                         : 256 Kbps
Channel(s)                       : 2 channels
Channel positions                : Front: L R
Sampling rate                    : 48.0 KHz
Bit depth                        : 16 bits
Video delay                      : -66ms
Stream size                      : 58.5 MiB (6%)
[br]
Menu

Dian Ramirez


Dian Ramirez began her involvement with sports and fitness at an early age, becoming a U.S. Women's Trampoline Champion and AAU All-American by the time she was 16. A graduate of the University of Iowa, the Cedar Rapids native has been a member of the teaching faculty at U.C.S.D. and is a consultant to the California Governor's Council on Physical Fitness and Sports. She has a Master of Science degree in Health Education and Exercise Science and holds a Gold certification from the American Council on Exercise. She is certified through the Physical Mind Institute to instruct the methods and movements based on the teachings of Joseph H. Pilates. Dian has motivated thousands of all ages to lead a more active lifestyle and achieve better health and well-being through physical activity.
Раздача от группы
[teatrix.ru].t17304.torrent 
Торрент: Зарегистрирован [ 2016-03-17 00:56 ] · D8340729779F92C6AD35324F78FA8342880D8F83

Скачать .torrent

Скачать

11 KB

Статус: проверено
Скачан: 1 раз
Размер: 557 MB
terms.php



Быстрый ответ

Имя:

      
Для отправки сообщений необходимо включить JavaScript
Показать сообщения:    

Текущее время: 08-Дек 08:57

Часовой пояс: UTC + 3


Вы можете начинать темы
Вы можете отвечать на сообщения
Вы не можете редактировать свои сообщения
Вы не можете удалять свои сообщения
Вы не можете голосовать в опросах
Вы не можете прикреплять файлы к сообщениям
Вы можете скачивать файлы