The Original Students of Joseph Pilates: Carola Shares - A Workshop by Carola Trier [2009, фитнес, пилатес, DVDRip, ENG] (Видеоуроки)

DL-List and Torrent activity [Update пиров]
Size:  1.24 GB   |    Registered:  7 months 7 days   |    Completed:  0 times

Seeder not seen: Never

Leechers:  37  [  0 KB/s  ]   Show peers in full details


The Original Students of Joseph Pilates
Carola Shares - A Workshop by Carola Trier
-Год выпуска: 2009
Страна: USA
Жанр: фитнес
Продолжительность: 02:03:00
Язык: Английский
Серия: The Original Students of Joseph Pilates
"Carola Trier forms an invaluable cornerstone of who I am as both a Pilates teacher and a professional business woman. She taught me so much, and she remains a tremendous and inspiring role model for us all. I am extremely proud to have had the opportunity to rework this archaic footage. I have added background information about Carola and her book, as well as navigational buttons and chapter headings. The sound and picture quality are boosted to the best of modern standards. I believe the quality of instruction and educational information offered in Carola's own words on this DVD are enough to overcome any of its' technical shortcomings, and I hope you will agree this is a DVD every Pilates teacher should view!" Jillian Hessel-Carola Shares - A Workshop by Carola Trier
Carola Trier была первым учеником Джозефа Пилатеса, открывшим собственную студию в Нью-Йорке и получившим его особое благословение на продолжение работы. Carola учила и тренировала огромное количество людей в течение более чем 30 лет. С помощью этого видео вы узнаете, как Карола познакомилась с Джозефом, а также как она внедрила свой подход к обучению и тренировкам. Эти редкие кадры Каролы за работой - все, что у нас осталось от ее огромного вклада в наследие Пилатес.
--Качество: DVDRip
Формат: AVI
Видео: XviD, 624 x 464, 4/3, 1 308 Kbps, 23.976 fps, 0.188 b/px
Аудио: MPEG-1 Audio layer 3, 128 Kbps, CBR, 48.0 KHz, 2 ch.

Огромное спасибо за DVD ms2006

Скриншоты видео

Части видео:
1. Новое вступление Джиллиана Хессела, ученика Каролы Триер.
2. Интервью с Каролой.
3. Осанка, включая новые кадры из книги Каролы.
4. Дыхание, включая новые кадры и объяснение Джиллиана Хессела
5. Работа на полу (Matwork)
6. Spine Corrector
7. Реформер
8. Кадиллак
9. Вспомогательное оборудование
10. Заключительная беседа и прощание-Workshop with Carola_00 Introduction+ Interviev with Carola = 10:34
-Workshop with Carola_01 Posture Analysis + Breathing = 09:59
-Workshop with Carola_02 Mat Exercises = 16:35
-Workshop with Carola_03 Step Barrel - Spine Corrector = 03:49
-Workshop with Carola_04 Universal Reformer = 30:00
-Workshop with Carola_05 Cadillac + Special Extras = 34:00
-Workshop with Carola_06 Auxiliary Exercises = 12:40
-Workshop with Carola_07 Concluding Remarks = 04:53


Меню - скриншоты DVD

MediaInfo DVD

PRODUCT NOTE: This DVD was restored from an old VHS video taped live at one of the first Pilates Conferences offered in California in 1989. It contains rare footage of Master Teacher Carola Trier in an interview and teaching the workshop, and it has considerable historical value for Pilates Teachers to see how Carola Trier actually taught the work of Joseph Pilates. However, be aware that while this video has been remastered to the best modern standards, but it was originally recorded on archaic equipment, when video was in its infancy. Please forgive the sound and picture quality of this vintage footage.
Complete name                    : Carola Shares\VIDEO_TS\VTS_01_1.VOB
Format                           : MPEG-PS
File size                        : 1 024 MiB
Duration                         : 32mn 56s
Overall bit rate                 : 4 345 Kbps
ID                               : 224 (0xE0)
Format                           : MPEG Video
Format version                   : Version 2
Format profile                   : Main@Main
Format settings, BVOP            : Yes
Format settings, Matrix          : Default
Format settings, GOP             : M=3, N=15
Duration                         : 32mn 56s
Bit rate mode                    : Variable
Bit rate                         : 4 067 Kbps
Nominal bit rate                 : 7 000 Kbps
Width                            : 720 pixels
Height                           : 480 pixels
Display aspect ratio             : 4:3
Frame rate                       : 29.970 fps
Standard                         : NTSC
Color space                      : YUV
Chroma subsampling               : 4:2:0
Bit depth                        : 8 bits
Scan type                        : Interlaced
Scan order                       : Bottom Field First
Bits/(Pixel*Frame)               : 0.393
Stream size                      : 958 MiB (94%)
ID                               : 128 (0x80)
Format                           : AC-3
t/Info                      : Audio Coding 3
Mode extension                   : CM (complete main)
Duration                         : 32mn 56s
Bit rate mode                    : Constant
Bit rate                         : 192 Kbps
Channel(s)                       : 2 channels
Channel positions                : Front: L R
Sampling rate                    : 48.0 KHz
Bit depth                        : 16 bits
Stream size                      : 45.2 MiB (4%)

Аннотация на англ. языке

Carola Trier was the very first pupil of Joseph Pilates to open her own Studio in New York City, with his special blessing to carry on his work. Carola taught and trained countless students for over 30 years, and trained many Pilates students. On this DVD, learn how she came to meet Joe, and how her own teaching and special approach to the work evolved. Shot in Tarzana, California in 1989 after her retirement in 1988, this rare footage of Carola in action is all that we have left of her tremendous contribution to Pilates' legacy. Areas of Focus: - New Introduction by Jillian Hessel, student of Carola Trier - Interview with Carola including background information - Carola's Posture Analysis, including new footage from Carola's book - Breathing, including new footage and explanation by Jillian Hessel - Matwork - Spine Corrector - Reformer - Cadillac - Auxiliary Equipment - Final Interview and Farewell
За перевод аннотации спасибо crazy tomatoРаздача от группы
Torrent: Registered [ 2016-03-17 00:55 ] · CD34968CD3907102F3BBB30C52BEBA7FFBC3CBDC

Download .torrent


14 KB

Status: checked
Completed: 0 times
Size: 1.24 GB

Quick Reply


Heads necessary to send messages to enable JavaScript
Display posts:    

Current time is: 24-Oct 09:56

All times are UTC + 3

You can post new topics in this forum
You can reply to topics in this forum
You cannot edit your posts in this forum
You cannot delete your posts in this forum
You cannot vote in polls in this forum
You cannot attach files in this forum
You can download files in this forum