The Original Students of Joseph Pilates: Jay Grimes - Pilates Revealed [2010 г., фитнес, пилатес, DVDRip, ENG] (Видеоуроки)


Статистика раздачи [Обновить пиров]
Размер:  590 MB   |    Зарегистрирован:  8 месяцев 25 дней   |    Скачан:  0 раз

Полного источника не было: Никогда

Личеров:  133  [  0 KB/s  ]   Подробная статистика пиров
 
   
 
 
 

[Цитировать]

The Original Students of Joseph Pilates
Jay Grimes - Pilates Revealed
- Год выпуска: 2010
Страна: USA
Жанр: Фитнес
Продолжительность: 75:12
Язык: Английский
Перевод: Отсутствует
Серия: The Original Students of Joseph Pilates
-Описание: Master Teacher Jay Grimes - Pilates Revealed
Джэй Граймс - профессиональный танцор в течение 18 лет, и за все это время он ни разу не получил травмы. Он утверждает, что обязан этому системе Пилатес. Он начал свое обучение с Джозефом Пилатесом в середине 60-х, а после смерти Джозефа, еще 10 лет учился у его жены Клары. Он был в числе одного из немногих учеников, которые обучались в подлинной (?) студии Пилатес на 8-ой Авеню в Нью-Йорке. Затем Джэй вместе со студией переехали на 56-ую улицу, где он преподавал (а также учился сам) наряду с Романой Кризановской (Romana Kryzanowska) и Джоном Винтерсом (John Winters). Имея почти 50-летний опыт преподавания Пилатес, Джэй является инструктором международного класса. В настоящее время он не только дает личные уроки в Лос-Анджелесе, но и проводит семинары и мастер-классы по всему миру.
-Качество: DVDRip
Формат: AVI
Видео: XviD, 640 x 352, 16/9, 959 Kbps, 23.976 fps, 0.177 b/px
Аудио: MPEG-1 Audio layer 3, 128 Kbps, CBR, 48.0 KHz, 2 ch.-
Огромное спасибо за DVD ms2006

Скриншоты видео

Меню - скриншот DVD
-В Воркшопе принимали участие:
-Reformer Work = 45:13
Learn a way to see, teach, treat the body, how to correct, build, simplify
-Mat Work = 20:23
The ever creative, effervescent talent of Jay Grimes gets you to learn,connect, ”squeeze the juice out” of your Matwork
-Wunda Chair Work = 09:36
-

Дополнительно


Jay Grimes danced professionally, ballet and Broadway for 18 years, and never had an injury. This he attributes entirely to Pilates. He began his studies with Joe Pilates in the mid-sixties, and continued with Joe's wife, Clara, for another 10 years after his death. One of the few students chosen to teach, Jay worked under the Pilates' in the original 8th Ave studio in New York, then moved with the studio to 56th Street where he taught alongside (as well as studied with) Romana Kryzanowska and John Winters. With nearly 50 years experience teaching Pilates, Jay is internationally sought after to teach continuing education workshops and master classes, in addition to maintaining a private practice in Los Angeles.

MediaInfo DVD

Complete name                    : \Jay Grimes\VIDEO_TS\VTS_01_1.VOB
Format                           : MPEG-PS
File size                        : 1 024 MiB
Duration                         : 23mn 8s
Overall bit rate                 : 6 186 Kbps
[br]
Video
ID                               : 224 (0xE0)
Format                           : MPEG Video
Format version                   : Version 2
Format profile                   : Main@Main
Format settings, BVOP            : Yes
Format settings, Matrix          : Default
Format settings, GOP             : M=3, N=15
Duration                         : 23mn 8s
Bit rate mode                    : Variable
Bit rate                         : 5 871 Kbps
Nominal bit rate                 : 7 700 Kbps
Width                            : 720 pixels
Height                           : 480 pixels
Display aspect ratio             : 16:9
Frame rate                       : 29.970 fps
Standard                         : NTSC
Color space                      : YUV
Chroma subsampling               : 4:2:0
Bit depth                        : 8 bits
Scan type                        : Interlaced
Scan order                       : Bottom Field First
Bits/(Pixel*Frame)               : 0.567
Stream size                      : 972 MiB (95%)
[br]
Audio
ID                               : 128 (0x80)
Format                           : AC-3
Format/Info                      : Audio Coding 3
Mode extension                   : CM (complete main)
Duration                         : 23mn 8s
Bit rate mode                    : Constant
Bit rate                         : 192 Kbps
Channel(s)                       : 2 channels
Channel positions                : Front: L R
Sampling rate                    : 48.0 KHz
Bit depth                        : 16 bits
Stream size                      : 31.8 MiB (3%)
[br]
Menu
За перевод аннотации спасибо crazy tomatoРаздача от группы
[teatrix.ru].t17325.torrent 
Торрент: Зарегистрирован [ 2016-03-17 00:55 ] · A82758705272B7F8378DA285A8323E2BF49F6436

Скачать .torrent

Скачать

12 KB

Статус: проверено
Скачан: 0 раз
Размер: 590 MB
terms.php



Быстрый ответ

Имя:

      
Для отправки сообщений необходимо включить JavaScript
Показать сообщения:    

Текущее время: 11-Дек 14:56

Часовой пояс: UTC + 3


Вы можете начинать темы
Вы можете отвечать на сообщения
Вы не можете редактировать свои сообщения
Вы не можете удалять свои сообщения
Вы не можете голосовать в опросах
Вы не можете прикреплять файлы к сообщениям
Вы можете скачивать файлы