Кинескоп с Петром Шепотинником. Вячеслав Тихонов (Петр Шепотинник) [2003, Документальное кино, TVRip]


Статистика раздачи [Обновить пиров]
Размер:  660 MB   |    Зарегистрирован:  8 месяцев 21 день   |    Скачан:  0 раз

Полного источника не было: Никогда

Личеров:  22  [  0 KB/s  ]   Подробная статистика пиров
 
   
 
 
 

[Цитировать]

Кинескоп с Петром Шепотинником. Вячеслав Тихонов
Год выпуска: 2003
Жанр: Документальное кино
Продолжительность: 0:41:25
Перевод: Не требуется
Описание: Фильм из цикла передач «Кинескоп с Петром Шепотинником» о Легенде нашего кино Вячеславе Васильевиче Тихонове. Передача вышла в год 75-летия актера.
Автор и ведущий: Петр Шепотинник Редактор: Ася Колодижнер
Доп. информация: Запись с ТК "Россия". Cтудийная оцифровка с VHS. Качество вполне смотрибельное.
качество: TVRip
формат: AVI
Видео: AVC Main@L3.1; 768x576 (4:3); 25 fps 1959 Кбит/сек
Аудио: MPEG Audio (Version 1), 2 ch 256 Кбит/сек 48 КГц

MediaInfo

Общее
Полное имя : F:\Кинескоп.avi
Формат : AVI
Формат/Информация : Audio Video Interleave
Размер файла : 660 Мбайт
Продолжительность : 41 м.
Общий поток : 2226 Кбит/сек
Программа кодирования : Lavf54.63.104
Видео
Идентификатор : 0
Формат : AVC
Формат/Информация : Advanced Video Codec
Профиль формата : Main@L3.1
Параметр CABAC формата : Да
Параметр ReFrames формата : 1 кадр
Идентификатор кодека : H264
Продолжительность : 41 м.
Битрейт : 1959 Кбит/сек
Ширина : 768 пикселей
Высота : 576 пикселей
Соотношение сторон : 4:3
Режим частоты кадров : Переменный
Частота кадров : 25,000 кадров/сек
Цветовое пространство : YUV
Субдискретизация насыщенности : 4:2:0
Битовая глубина : 8 бит
Тип развёртки : Прогрессивная
Бит/(Пиксели*Кадры) : 0.177
Размер потока : 580 Мбайт (88%)
Библиотека кодирования : x264 core 129
Настройки программы : cabac=1 / ref=1 / deblock=1:0:0 / analyse=0x1:0x131 / me=dia / subme=2 / psy=1 / psy_rd=1.00:0.00 / mixed_ref=0 / me_range=16 / chroma_me=1 / trellis=0 / 8x8dct=0 / cqm=0 / deadzone=21,11 / fast_pskip=1 / chroma_qp_offset=0 / threads=2 / lookahead_threads=1 / sliced_threads=0 / nr=0 / decimate=1 / interlaced=0 / bluray_compat=0 / constrained_intra=0 / bframes=0 / weightp=2 / keyint=250 / keyint_min=25 / scenecut=40 / intra_refresh=0 / rc_lookahead=40 / rc=abr / mbtree=1 / bitrate=1959 / ratetol=1.0 / qcomp=0.60 / qpmin=10 / qpmax=51 / qpstep=4 / ip_ratio=1.41 / aq=1:1.00
Аудио
Идентификатор : 1
Формат : MPEG Audio
Версия формата : Version 1
Профиль формата : Layer 3
Режим : Joint stereo
Расширение режима : MS Stereo
Идентификатор кодека : 55
Идентификатор кодека/Подсказка : MP3
Продолжительность : 41 м.
Вид битрейта : Постоянный
Битрейт : 256 Кбит/сек
Каналы : 2 канала
Частота : 48,0 КГц
Метод сжатия : С потерями
Размер потока : 75,9 Мбайт (12%)
Выравнивание : Соединение по промежуткам
Продолжительность промежутка : 24 мс. (0,60 видеокадр)

Скриншоты

[teatrix.ru].t17339.torrent 
Торрент: Зарегистрирован [ 2016-03-17 00:52 ] · 371EB0C2550035DE540C5BE21C14A8F943B3CE43

Скачать .torrent

Скачать

13 KB

Статус: проверено
Скачан: 0 раз
Размер: 660 MB
terms.php



Показать сообщения:    

Текущее время: 07-Дек 17:28

Часовой пояс: UTC + 3


Вы не можете начинать темы
Вы не можете отвечать на сообщения
Вы не можете редактировать свои сообщения
Вы не можете удалять свои сообщения
Вы не можете голосовать в опросах
Вы не можете прикреплять файлы к сообщениям
Вы можете скачивать файлы