Вестсайдская история: фильм и симфонический оркестр / A West Side Story: The Film & the Philharmonic (Дэмиан Таунэнд / Damian Townend) [2013, документальный, музыкальный, кинематограф, DVB] DVO (MGM)


Статистика раздачи [Обновить пиров]
Размер:  919 MB   |    Зарегистрирован:  8 месяцев 18 дней   |    Скачан:  0 раз

Полного источника не было: Никогда

Личеров:  3  [  0 KB/s  ]   Подробная статистика пиров
 
   
 
 
 

[Цитировать]

Вестсайдская история: фильм и симфонический оркестр
A West Side Story: The Film & the Philharmonic- Год выпуска: 2013
Страна: США, Великобритания
Жанр: документальный, музыкальный, кинематограф
Продолжительность: 00:49:47
Перевод: Профессиональный (двухголосый закадровый) (MGM)
Русские субтитры: нет
Режиссер: Дэмиан Таунэнд / Damian TownendОписание: Более 50 лет "Вестсайдская история" трогает и зачаровывает нас соединением драмы, музыки, танца и песни. Дошедший до зрителей всего мира, этот мюзикл стал самым успешным и популярным в истории. Его бесконечная притягательность дошла и до зрителей новой эпохи. Сегодня они переживают "Вестсайдскую историю" еще ярче, чем прежде.
Фильм "Вестсайдская история" снят по одноименному Бродвейскому мюзиклу 1957 года. Он появился благодаря встречи невероятно талантливых и творческих личностей. Своим успехом "Вестсайдская история" обязана Артуру Лоренсу, Леонарду Бернстайну, Стивену Сондхайму и Джерому Роббинсу.
Фильм вышел на экраны 18 октября 1961 года и получил признание критиков и кассовый успех. Он завоевал 10 премий Киноакадемии из 11 номинаций, в т.ч. премию за лучший фильм. С тех пор он стал одним из долгоживущих мюзиклов в кино.
Вам предлагается история создания легендарного фильма. Вы также услышите музыку из мюзикла в исполнении Лондонского симфонического оркестра в королевском Альберт-Холле, запись 22 июня 2012 года.
Доп. информация: Запись со спутника (киноканал MGM).
Информация: http://www.imdb.com/title/tt2636642/
Сэмпл: http://multi-up.com/888861
качество: DVB
формат: MPEG-PS (См. при проблемах с просмотром видео)
Видео: MPEG Video 2, 720x576@768x576 (4:3), 25 fps, ~2143 kbps avg, 0.207 bit/pixel
Аудио 1: Русский (48 kHz, MPEG Audio 2, 2 ch, ~192.00 kbps avg)
Аудио 2: Английский (48 kHz, MPEG Audio 2, 2 ch, ~192.00 kbps avg)

MediaInfo

Полное имя                               : H:\My Torrents\[apreder]A_West_Side_Story_The_Film_&_the_Philharmonic(2013)DVB.mpg
Формат : MPEG-PS
Размер файла : 919 Мбайт
Продолжительность : 49 м.
Режим общего битрейта : Переменный
Общий поток : 2578 Кбит/сек
Видео
Идентификатор : 224 (0xE0)
Формат : MPEG Video
Версия формата : Version 2
Профиль формата : Main@Main
Параметр BVOP формата : Да
Параметр матрицы формата : Выборочная
Параметр GOP формата : M=2, N=12
Продолжительность : 49 м.
Вид битрейта : Переменный
Битрейт : 2143 Кбит/сек
Ширина : 720 пикселей
Высота : 576 пикселей
Соотношение сторон : 4:3
Частота кадров : 25,000 кадров/сек
Стандарт вещания : PAL
Цветовое пространство : YUV
Субдискретизация насыщенности : 4:2:0
Битовая глубина : 8 бит
Тип развёртки : Чересстрочная
Порядок развёртки : Верхнее поле первое
Метод сжатия : С потерями
Бит/(Пиксели*Кадры) : 0.207
TimeCode_FirstFrame : 00:00:00:00
TimeCode_Source : Group of pictures header
Размер потока : 764 Мбайт (83%)
Аудио #1
Идентификатор : 192 (0xC0)
Формат : MPEG Audio
Версия формата : Version 1
Профиль формата : Layer 2
Продолжительность : 49 м.
Вид битрейта : Постоянный
Битрейт : 192 Кбит/сек
Каналы : 2 канала
Частота : 48,0 КГц
Метод сжатия : С потерями
Размер потока : 68,4 Мбайт (7%)
Аудио #2
Идентификатор : 193 (0xC1)
Формат : MPEG Audio
Версия формата : Version 1
Профиль формата : Layer 2
Продолжительность : 49 м.
Вид битрейта : Постоянный
Битрейт : 192 Кбит/сек
Каналы : 2 канала
Частота : 48,0 КГц
Метод сжатия : С потерями
Размер потока : 68,4 Мбайт (7%)

Скриншоты

Резервные скриншоты

-880/862√
[teatrix.ru].t17350.torrent 
Торрент: Зарегистрирован [ 2016-03-17 00:52 ] · A8115DD6FC781821412A2075671D30D542992AEC

Скачать .torrent

Скачать

18 KB

Статус: проверено
Скачан: 0 раз
Размер: 919 MB
terms.php



Быстрый ответ

Имя:

      
Для отправки сообщений необходимо включить JavaScript
Показать сообщения:    

Текущее время: 04-Дек 23:19

Часовой пояс: UTC + 3


Вы можете начинать темы
Вы можете отвечать на сообщения
Вы не можете редактировать свои сообщения
Вы не можете удалять свои сообщения
Вы не можете голосовать в опросах
Вы не можете прикреплять файлы к сообщениям
Вы можете скачивать файлы