Joey Bull - Ballet Workout: Total Body Toning / Джой Булл - Балет: Новый взгляд на фитнес [2008 г., фитнес, DVDRip, RUS / ENG] (Видеоуроки)


Статистика раздачи [Обновить пиров]
Размер:  489 MB   |    Зарегистрирован:  8 месяцев 17 дней   |    Скачан:  0 раз

Полного источника не было: Никогда

Личеров:  50  [  0 KB/s  ]   Подробная статистика пиров
 
   
 
 
 

[Цитировать]

Joey Bull - Ballet Workout: Total Body Toning / Джой Булл - Балет: Новый взгляд на фитнес

Healthy Living Series
-
Год выпуска: 2008
Страна: Великобритания / Россия
Жанр: фитнес
Язык: английский
Перевод: русский одноголосый
Продолжительность: 59:08-Описание: Джой Булл - Балет: Новый взгляд на фитнесПеред Вами оригинальная экспресс-программа, созданная специально для занятых женщин, следящих за собой. Наш курс поможет не только похудеть, но и сохранить здоровую осанку, придать грациозность и изящность движениям, не изнуряя себя при этом многочасовыми занятиями в студии. Уникальность программы заключается в нетривиальном подходе к похудению, основанном на сочетании упражнений из классического балета, позволяет сбросить лишний вес, укрепить мышцы, обрести легкость.
--
Качество: DVDRip
Формат: AVI
Видео: XviD, 720 x 400, 16/9, 885 Kbps, 25.000 fps, 0.123 b/px
Аудио:
Аудиодорожка № 1: MPEG-1 Audio layer 3, 128 Kbps, CBR, 48.0 KHz, русский одноголосый
Аудиодорожка № 2: MPEG-1 Audio layer 3, 128 Kbps, CBR, 48.0 KHz, английский

Постеры кликабельны

Скриншоты видео

Меню - скриншоты DVD
- -Joey Bull - Ballet Workout: Total Body Toning (Healthy Living Series)
Whether you are after a firmer bottom, toned legs and abs or trimming the fat, Ballet Workout will help you reach your goals! Ballet Workout takes the best fitness ingredients from the world of classical dance and presents then in a fun new workout designed to achieve impressive and lasting results. Under Joey Bull's guidance a fitter, firmer you is just around the corner.... and you don't have to be a dancer! Combining easy to follow strength and cardio exercises Ballet Workout has been proven to attain tighter, fitter, stronger, leaner bodies and improved posture, poise, balance and control. Here's to a fitter and firmer you!

MediaInfo DVD

Complete name                    : \Joey Bull Ballet Workout - Total Body Toning\VIDEO_TS\VTS_02_1.VOB
Format                           : MPEG-PS
File size                        : 1 024 MiB
Duration                         : 17mn 5s
Overall bit rate                 : 8 377 Kbps
[br]
Video
ID                               : 224 (0xE0)
Format                           : MPEG Video
Format version                   : Version 2
Format profile                   : Main@Main
Format settings, BVOP            : Yes
Format settings, Matrix          : Default
Format settings, GOP             : M=3, N=15
Duration                         : 17mn 5s
Bit rate mode                    : Variable
Bit rate                         : 7 000 Kbps
Width                            : 720 pixels
Height                           : 576 pixels
Display aspect ratio             : 16:9
Frame rate                       : 25.000 fps
Standard                         : PAL
Color space                      : YUV
Chroma subsampling               : 4:2:0
Bit depth                        : 8 bits
Scan type                        : Interlaced
Scan order                       : Bottom Field First
Bits/(Pixel*Frame)               : 0.675
Stream size                      : 816 MiB (80%)
[br]
Audio
ID                               : 160 (0xA0)
Format                           : PCM
Format settings, Endianness      : Big
Format settings, Sign            : Signed
Muxing mode                      : DVD-Video
Duration                         : 17mn 5s
Bit rate mode                    : Constant
Bit rate                         : 1 536 Kbps
Channel(s)                       : 2 channels
Channel positions                : Front: L R
Sampling rate                    : 48.0 KHz
Bit depth                        : 16 bits
Stream size                      : 188 MiB (18%)
[br]
Menu

Как выбрать аудио дорожку

Первой - по умолчанию - стоит аудио дорожка с русским переводом.
Если Вы хотите смотреть видео с оригинальной английской дорожкой, Вам нужно выбрать 2-ю дорожку на Вашем плеере.

GOM Player

Media Player Classic

VLC Player

Релиз от группы
[teatrix.ru].t17367.torrent 
Торрент: Зарегистрирован [ 2016-03-17 00:55 ] · E599B2E046B75C32B992AC444E713F6FA8FA1B39

Скачать .torrent

Скачать

20 KB

Статус: проверено
Скачан: 0 раз
Размер: 489 MB
terms.php



Быстрый ответ

Имя:

      
Для отправки сообщений необходимо включить JavaScript
Показать сообщения:    

Текущее время: 03-Дек 12:37

Часовой пояс: UTC + 3


Вы можете начинать темы
Вы можете отвечать на сообщения
Вы не можете редактировать свои сообщения
Вы не можете удалять свои сообщения
Вы не можете голосовать в опросах
Вы не можете прикреплять файлы к сообщениям
Вы можете скачивать файлы