(Classical) Рейнальдо Ан – Песни / Reynaldo Hahn – Songs (Graham, Vignoles) - 1998, FLAC (image+.cue) lossless


 

[Цитировать]

Рейнальдо Ан – Песни / Reynaldo Hahn – Songs (Graham, Vignoles)
Жанр: Classical
Страна-производитель диска: Австрия
Год издания диска: 1998
Издатель (лейбл): Sony
Номер по каталогу: SK 60168
Дата записи: 16 — 19 января 1998 г., Нью-Йорк.
Аудиокодек: FLAC
Тип рипа: image+.cue
Битрейт аудио: lossless
Продолжительность: 01:02:15
Источник: odeonmusic
Наличие сканов в содержимом раздачи: да
Треклист:
Рейнальдо Ан (1874 — 1947).
«Пьяные песни» (Chansons grises; П. Верлен; оп. 1893).
22. № 5. Чудный час (L'Heure exquise; 1891). Infiniment doux et calme [02:28].
Рондели (Rondels) для солистов, хора и фортепиано (1897 — 1898).
15. № 3. Весна (Le Printemps; Т. де Банвиль; 1899). Animé, avec enthousiasme, avec ivresse (Также: Мелодии, сборник II. — № 11) [01:47].
17. № 8. Когда я был завлечен в домик (Quand je fus pris au pavillon; Карл Орлеанский; 1899). Vite, très légèrement (Также: Мелодии, сборник II. — № 7) [01:17].
09. № 10. Осень (L'Automne; Т. де Банвиль). Allegretto modéré [01:30].
Латинские этюды (Études latines) для солистов, хора и фортепиано (Л. де Лиль; 1899 — 1900).
05. № 5. Лида (Lydé). Pas trop lent [02:56].
06. № 7. Тиндарида (Tyndaris). Doux, modéré [01:50].
07. № 10. Филлида (Phyllis). Sérieux et tendre [03:10].
«Израненные листки» (Les feuilles blessées; Ж. Мореас; оп. 1909).
11. № 5. Когда я приду посидеть (Quand je viendrai m'asseoir; 1904). Agité, fougueux, mais sans aucune précipitation (Также: Мелодии, сборник II. — № 12. Ночью — Dans la nuit) [01:25].
14. № 8. Эфира товарищ (Compagne de l'éther; 1906). Modéré (Также: Мелодии, сборник II. — № 10. Дым — Fumée) [03:20].
Мелодии, сборник I (оп. 1896).
24. № 2. «Мой стих вспорхнул бы над лугами...» (Si mes vers avaient des ailes!..; В. Гюго; 1888). Andante moderato [02:19].
21. № 3. Май (Mai; Ф. Коппе; 1889). Assez animé [02:08].
18. № 4. Пейзаж (Paysage; А. Терье; 1890). Un peu lent [02:27].
03. № 5. Возлюбленная (L'Énamourée; Т. де Банвиль; 1891). Assez lent [03:31].
23. № 8. Подношение (Offrande; П. Верлен; 1891). Pas trop lent [02:53].
04. № 9. Три дня сбора винограда (Trois jours de vendange; А. Доде; 1891). Franc et rythmé [03:50].
10. № 10. Неверность (Infidélité; Т. Готье; 1891). Pas trop lent [02:57].
19. № 11. Галантные празднества (Fêtes galantes; П. Верлен; 1892). Allegretto [02:02].
12. № 16. Из тюрьмы (D'une prison; П. Верлен; 1892). Pas trop lent [03:15].
20. № 19. Ноктюрн (Nocturne; А. Казалис; 1893). Andantino lento (extrêmement vague et doux) [01:49].
Мелодии, сборник II (оп. 1921).
13. № 1. Когда ночь беззвездна (Quand la nuit n'est pas étoilée; В. Гюго; 1900). Calme [03:26].
08. № 13. Ключи (Les Fontaines; Анри де Ренье; 1910). Animé, passionné, sans agitation [02:16].
01. № 14. К Хлориде (À Chloris; Т. де Вио; 1913). Très lent [03:03].
02. № 15. Соловей в сирени (Le Rossignol des lilas; Л. Дофен; 1913). Modéré mais sans lenteur et avec élan [02:09].
Девять мелодий, изданных посмертно (оп. 1955).
16. № 1. Я вспоминаю (Je me souviens; Л. Гийо де Се) [04:24].
Исполнители:
Susan Graham (меццо-сопрано).
Roger Vignoles (фортепиано).

Лог создания рипа

Exact Audio Copy V1.0 beta 3 from 29. August 2011
EAC extraction logfile from 29. May 2013, 10:10
Susan Graham / Reynaldo Hahn - Songs - Susan Graham
Used drive : TSSTcorpCDDVDW SH-222BB Adapter: 2 ID: 1
Read mode : Secure
Utilize accurate stream : Yes
Defeat audio cache : Yes
Make use of C2 pointers : No
Read offset correction : 6
Overread into Lead-In and Lead-Out : No
Fill up missing offset samples with silence : Yes
Delete leading and trailing silent blocks : No
Null samples used in CRC calculations : Yes
Used interface : Native Win32 interface for Win NT & 2000
Used output format : User Defined Encoder
Selected bitrate : 1024 kBit/s
Quality : High
Add ID3 tag : No
Command line compressor : C:\Program Files\Exact Audio Copy\Flac\flac.exe
Additional command line options : -8 -V -T "TITLE=%title%" -T "ARTIST=%artist%" -T "ALBUMARTIST=%albumartist%" -T "ALBUM=%albumtitle%" -T "DATE=%year%" -T "TRACKNUMBER=%tracknr%" -T "TRACKTOTAL=%numtracks%" -T "GENRE=%genre%" -T "COMMENT=%comment%" -T "PERFORMER=%albuminterpret%" -T "COMPOSER=%composer%" %source% -o %dest%
TOC of the extracted CD
Track | Start | Length | Start sector | End sector
---------------------------------------------------------
1 | 0:00.00 | 3:03.05 | 0 | 13729
2 | 3:03.05 | 2:09.32 | 13730 | 23436
3 | 5:12.37 | 3:30.53 | 23437 | 39239
4 | 8:43.15 | 3:50.35 | 39240 | 56524
5 | 12:33.50 | 2:56.37 | 56525 | 69761
6 | 15:30.12 | 1:50.00 | 69762 | 78011
7 | 17:20.12 | 3:09.70 | 78012 | 92256
8 | 20:30.07 | 2:15.55 | 92257 | 102436
9 | 22:45.62 | 1:30.38 | 102437 | 109224
10 | 24:16.25 | 2:57.15 | 109225 | 122514
11 | 27:13.40 | 1:25.25 | 122515 | 128914
12 | 28:38.65 | 3:15.10 | 128915 | 143549
13 | 31:54.00 | 3:26.25 | 143550 | 159024
14 | 35:20.25 | 3:20.32 | 159025 | 174056
15 | 38:40.57 | 1:47.23 | 174057 | 182104
16 | 40:28.05 | 4:23.50 | 182105 | 201879
17 | 44:51.55 | 1:16.47 | 201880 | 207626
18 | 46:08.27 | 2:27.40 | 207627 | 218691
19 | 48:35.67 | 2:01.58 | 218692 | 227824
20 | 50:37.50 | 1:49.05 | 227825 | 236004
21 | 52:26.55 | 2:08.20 | 236005 | 245624
22 | 54:35.00 | 2:28.27 | 245625 | 256751
23 | 57:03.27 | 2:53.10 | 256752 | 269736
24 | 59:56.37 | 2:19.40 | 269737 | 280201
Range status and errors
Selected range
Filename G:\Ripped general\[3136] Reynaldo Hahn – Songs – Susan Graham\Reynaldo Hahn - Songs - Susan Graham.wav
Peak level 99.8 %
Extraction speed 7.0 X
Range quality 99.9 %
Test CRC D82C94E9
Copy CRC D82C94E9
Copy OK
No errors occurred
AccurateRip summary
Track 1 accurately ripped (confidence 6) [7A2C5B0C] (AR v2)
Track 2 accurately ripped (confidence 6) [02D269CB] (AR v2)
Track 3 accurately ripped (confidence 5) [9F57534E] (AR v2)
Track 4 accurately ripped (confidence 6) [14D5BFCA] (AR v2)
Track 5 accurately ripped (confidence 6) [6ADBD77F] (AR v2)
Track 6 accurately ripped (confidence 6) [47894B46] (AR v2)
Track 7 accurately ripped (confidence 6) [5DA07780] (AR v2)
Track 8 accurately ripped (confidence 6) [1C83E34D] (AR v2)
Track 9 accurately ripped (confidence 6) [F514D940] (AR v2)
Track 10 accurately ripped (confidence 6) [ABC4F73F] (AR v2)
Track 11 accurately ripped (confidence 6) [321EF329] (AR v2)
Track 12 accurately ripped (confidence 6) [B4329A62] (AR v2)
Track 13 accurately ripped (confidence 6) [15ACE10C] (AR v2)
Track 14 accurately ripped (confidence 6) [6C9CF44E] (AR v2)
Track 15 accurately ripped (confidence 6) [184662FC] (AR v2)
Track 16 accurately ripped (confidence 6) [ABEFC5D0] (AR v2)
Track 17 accurately ripped (confidence 6) [5DAD2C5A] (AR v2)
Track 18 accurately ripped (confidence 6) [27985CE0] (AR v2)
Track 19 accurately ripped (confidence 6) [CCD4285F] (AR v2)
Track 20 accurately ripped (confidence 6) [40595223] (AR v2)
Track 21 accurately ripped (confidence 6) [0419B4F1] (AR v2)
Track 22 accurately ripped (confidence 6) [61CBAD3D] (AR v2)
Track 23 accurately ripped (confidence 5) [1BC3B12F] (AR v2)
Track 24 accurately ripped (confidence 5) [A462CDFD] (AR v2)
All tracks accurately ripped
End of status report

Содержание индексной карты (.CUE)

REM GENRE Classical
REM DATE 1998
REM DISCID 490E9818
REM COMMENT "ExactAudioCopy v1.0b3"
PERFORMER "Susan Graham"
TITLE "Reynaldo Hahn – Songs – Susan Graham"
FILE "Reynaldo Hahn – Songs – Susan Graham.flac" WAVE
TRACK 01 AUDIO
TITLE "A Chloris"
PERFORMER "Susan Graham"
INDEX 01 00:00:00
TRACK 02 AUDIO
TITLE "Le Rossignol des lilas"
PERFORMER "Susan Graham"
INDEX 01 03:03:05
TRACK 03 AUDIO
TITLE "L'Enamouree"
PERFORMER "Susan Graham"
INDEX 01 05:12:37
TRACK 04 AUDIO
TITLE "Trois Jours de vendange"
PERFORMER "Susan Graham"
INDEX 01 08:43:15
TRACK 05 AUDIO
TITLE "Lyde"
PERFORMER "Susan Graham"
INDEX 01 12:33:50
TRACK 06 AUDIO
TITLE "Tyndaris"
PERFORMER "Susan Graham"
INDEX 01 15:30:12
TRACK 07 AUDIO
TITLE "Phyllis"
PERFORMER "Susan Graham"
INDEX 01 17:20:12
TRACK 08 AUDIO
TITLE "Les Fontaines"
PERFORMER "Susan Graham"
INDEX 01 20:30:07
TRACK 09 AUDIO
TITLE "L'Automne"
PERFORMER "Susan Graham"
INDEX 01 22:45:62
TRACK 10 AUDIO
TITLE "Infidelite"
PERFORMER "Susan Graham"
INDEX 01 24:16:25
TRACK 11 AUDIO
TITLE "Dans la nuit"
PERFORMER "Susan Graham"
INDEX 01 27:13:40
TRACK 12 AUDIO
TITLE "D'une prison"
PERFORMER "Susan Graham"
INDEX 01 28:38:65
TRACK 13 AUDIO
TITLE "Quand la nuit n'est pas etoilee"
PERFORMER "Susan Graham"
INDEX 01 31:54:00
TRACK 14 AUDIO
TITLE "Fumee"
PERFORMER "Susan Graham"
INDEX 01 35:20:25
TRACK 15 AUDIO
TITLE "Le Printemps"
PERFORMER "Susan Graham"
INDEX 01 38:40:57
TRACK 16 AUDIO
TITLE "Je me souviens"
PERFORMER "Susan Graham"
INDEX 01 40:28:05
TRACK 17 AUDIO
TITLE "Quand je fus pris au pavillon"
PERFORMER "Susan Graham"
INDEX 01 44:51:55
TRACK 18 AUDIO
TITLE "Paysage"
PERFORMER "Susan Graham"
INDEX 01 46:08:27
TRACK 19 AUDIO
TITLE "Fetes galantes"
PERFORMER "Susan Graham"
INDEX 01 48:35:67
TRACK 20 AUDIO
TITLE "Nocturne"
PERFORMER "Susan Graham"
INDEX 01 50:37:50
TRACK 21 AUDIO
TITLE "Mai"
PERFORMER "Susan Graham"
INDEX 01 52:26:55
TRACK 22 AUDIO
TITLE "L'Heure exquise"
PERFORMER "Susan Graham"
INDEX 01 54:35:00
TRACK 23 AUDIO
TITLE "Offrande"
PERFORMER "Susan Graham"
INDEX 01 57:03:27
TRACK 24 AUDIO
TITLE "Si mes vers avaient des ailes"
PERFORMER "Susan Graham"
INDEX 01 59:56:37

Вариант индексной карты (.CUE) с выставленными зазорами

REM GENRE Classical
REM DATE 1998
REM DISCID 490E9818
REM COMMENT "ExactAudioCopy v1.0b3"
PERFORMER "Susan Graham"
TITLE "Reynaldo Hahn – Songs – Susan Graham"
FILE "Reynaldo Hahn – Songs – Susan Graham.flac" WAVE
TRACK 01 AUDIO
TITLE "A Chloris"
PERFORMER "Susan Graham"
INDEX 01 00:00:00
TRACK 02 AUDIO
TITLE "Le Rossignol des lilas"
PERFORMER "Susan Graham"
INDEX 00 02:59:22
INDEX 01 03:03:05
TRACK 03 AUDIO
TITLE "L'Enamouree"
PERFORMER "Susan Graham"
INDEX 00 05:09:63
INDEX 01 05:12:37
TRACK 04 AUDIO
TITLE "Trois Jours de vendange"
PERFORMER "Susan Graham"
INDEX 00 08:39:48
INDEX 01 08:43:15
TRACK 05 AUDIO
TITLE "Lyde"
PERFORMER "Susan Graham"
INDEX 00 12:31:31
INDEX 01 12:33:50
TRACK 06 AUDIO
TITLE "Tyndaris"
PERFORMER "Susan Graham"
INDEX 00 15:26:61
INDEX 01 15:30:12
TRACK 07 AUDIO
TITLE "Phyllis"
PERFORMER "Susan Graham"
INDEX 00 17:16:22
INDEX 01 17:20:12
TRACK 08 AUDIO
TITLE "Les Fontaines"
PERFORMER "Susan Graham"
INDEX 00 20:25:48
INDEX 01 20:30:07
TRACK 09 AUDIO
TITLE "L'Automne"
PERFORMER "Susan Graham"
INDEX 00 22:42:27
INDEX 01 22:45:62
TRACK 10 AUDIO
TITLE "Infidelite"
PERFORMER "Susan Graham"
INDEX 00 24:13:58
INDEX 01 24:16:25
TRACK 11 AUDIO
TITLE "Dans la nuit"
PERFORMER "Susan Graham"
INDEX 00 27:10:55
INDEX 01 27:13:40
TRACK 12 AUDIO
TITLE "D'une prison"
PERFORMER "Susan Graham"
INDEX 00 28:35:68
INDEX 01 28:38:65
TRACK 13 AUDIO
TITLE "Quand la nuit n'est pas etoilee"
PERFORMER "Susan Graham"
INDEX 00 31:50:63
INDEX 01 31:54:00
TRACK 14 AUDIO
TITLE "Fumee"
PERFORMER "Susan Graham"
INDEX 00 35:16:07
INDEX 01 35:20:25
TRACK 15 AUDIO
TITLE "Le Printemps"
PERFORMER "Susan Graham"
INDEX 00 38:37:39
INDEX 01 38:40:57
TRACK 16 AUDIO
TITLE "Je me souviens"
PERFORMER "Susan Graham"
INDEX 00 40:25:06
INDEX 01 40:28:05
TRACK 17 AUDIO
TITLE "Quand je fus pris au pavillon"
PERFORMER "Susan Graham"
INDEX 00 44:49:39
INDEX 01 44:51:55
TRACK 18 AUDIO
TITLE "Paysage"
PERFORMER "Susan Graham"
INDEX 00 46:04:52
INDEX 01 46:08:27
TRACK 19 AUDIO
TITLE "Fetes galantes"
PERFORMER "Susan Graham"
INDEX 00 48:32:10
INDEX 01 48:35:67
TRACK 20 AUDIO
TITLE "Nocturne"
PERFORMER "Susan Graham"
INDEX 00 50:33:52
INDEX 01 50:37:50
TRACK 21 AUDIO
TITLE "Mai"
PERFORMER "Susan Graham"
INDEX 00 52:22:46
INDEX 01 52:26:55
TRACK 22 AUDIO
TITLE "L'Heure exquise"
PERFORMER "Susan Graham"
INDEX 00 54:30:73
INDEX 01 54:35:00
TRACK 23 AUDIO
TITLE "Offrande"
PERFORMER "Susan Graham"
INDEX 00 56:59:29
INDEX 01 57:03:27
TRACK 24 AUDIO
TITLE "Si mes vers avaient des ailes"
PERFORMER "Susan Graham"
INDEX 00 59:51:19
INDEX 01 59:56:37



Показать сообщения:    

Текущее время: 09-Дек 20:28

Часовой пояс: UTC + 3


Вы не можете начинать темы
Вы не можете отвечать на сообщения
Вы не можете редактировать свои сообщения
Вы не можете удалять свои сообщения
Вы не можете голосовать в опросах
Вы не можете прикреплять файлы к сообщениям
Вы не можете скачивать файлы