(Sacred Vocal Music) Giovanni Pergolesi- Stabat Mater, Salve Regina / Alessandro Scarlatti - Salve Regina ( June Anderson, Cecilia Bartoli, Montreal Sinfonietta, Charles Dutoit) - 1999, FLAC (image+.cue) lossless


 

[Цитировать]

Alessandro Scarlatti - Salve Regina
Giovanni Pergolesi- Stabat Mater | Salve Regina
Montreal Sinfonietta | Charles Dutoit
Жанр: Sacred Vocal Music
Страна-производитель диска: Germany
Год издания диска: 1999
Издатель (лейбл): Decca
Номер по каталогу: 436 209-2
Дата записи: 1991
Аудиокодек: FLAC
Тип рипа: image+.cue
Битрейт аудио: lossless
Продолжительность: 69:15
Источник: собственный рип
Наличие сканов в содержимом раздачи: да
Треклист:
1 Alessandro Scarlatti - Salve Regina No. 1, antiphon for soprano, alto, 2 violins & continuo 16:43
Giovanni Battista Pergolesi - Stabat mater, for soprano, alto, strings & organ in F major
2 No. 1, Stabat Mater 3:50
3 No. 2, Cuius animam 2:08
4 No. 3, O quam tristis 2:10
5 No. 4, Quae moerebat 2:24
6 No. 5, Quis est homo 2:36
7 No. 6, Vidit suum dulcem Natum 3:35
8 No. 7, Eia Mater 2:17
9 No. 8, Fac ut ardeat 2:17
10 No. 9, Sancta Mater 5:01
11 No. 10, Fac ut portem 3:27
12 No. 11, Inflammatus et accensus 2:28
13 No. 12, Quando Corpus morietur / No. 13, Amen 5:05
14 Giovanni Battista Pergolesi - Salve regina, for (mezzo-)soprano, strings & organ in C minor 15:08
Исполнители:
June Anderson - soprano
Cecilia Bartoli - mezzo-soprano
Montreal Sinfonietta
Charles Dutoit - conductor

Лог создания рипа

Exact Audio Copy V1.0 beta 3 from 29. August 2011
EAC extraction logfile from 24. July 2013, 22:05
Charles Dutoit - Sinfionetta de Montréal / Pergolesi: Stabat Mater
Used drive : TSSTcorp CDDVDW Adapter: 0 ID: 0
Read mode : Secure
Utilize accurate stream : Yes
Defeat audio cache : Yes
Make use of C2 pointers : No
Read offset correction : 6
Overread into Lead-In and Lead-Out : No
Fill up missing offset samples with silence : Yes
Delete leading and trailing silent blocks : No
Null samples used in CRC calculations : Yes
Used interface : Installed external ASPI interface
Used output format : User Defined Encoder
Selected bitrate : 768 kBit/s
Quality : High
Add ID3 tag : No
Command line compressor : C:\Program Files (x86)\Exact Audio Copy\FLAC\FLAC.EXE
Additional command line options : -6 -V -T "ARTIST=%artist%" -T "TITLE=%title%" -T "ALBUM=%albumtitle%" -T "DATE=%year%" -T "TRACKNUMBER=%tracknr%" -T "GENRE=%genre%" -T "COMMENT=%comment%" -T "BAND=%albuminterpret%" -T "ALBUMARTIST=%albuminterpret%" -T "COMPOSER=%composer%" %haslyrics%--tag-from-file=LYRICS="%lyricsfile%"%haslyrics% -T "DISCNUMBER=%cdnumber%" -T "TOTALDISCS=%totalcds%" -T "TOTALTRACKS=%numtracks%" %hascover%--picture="%coverfile%"%hascover% %source% -o %dest%
TOC of the extracted CD
Track | Start | Length | Start sector | End sector
---------------------------------------------------------
1 | 0:00.32 | 16:43.50 | 32 | 75306
2 | 16:44.07 | 3:50.00 | 75307 | 92556
3 | 20:34.07 | 2:08.13 | 92557 | 102169
4 | 22:42.20 | 2:10.50 | 102170 | 111969
5 | 24:52.70 | 2:24.50 | 111970 | 122819
6 | 27:17.45 | 2:36.37 | 122820 | 134556
7 | 29:54.07 | 3:35.63 | 134557 | 150744
8 | 33:29.70 | 2:17.12 | 150745 | 161031
9 | 35:47.07 | 2:17.50 | 161032 | 171356
10 | 38:04.57 | 5:01.63 | 171357 | 193994
11 | 43:06.45 | 3:27.50 | 193995 | 209569
12 | 46:34.20 | 2:28.12 | 209570 | 220681
13 | 49:02.32 | 5:05.13 | 220682 | 243569
14 | 54:07.45 | 15:08.00 | 243570 | 311669
Range status and errors
Selected range
Filename C:\RIP\Pergolesi- Stabat Mater (Dutoit).wav
Peak level 89.3 %
Extraction speed 3.4 X
Range quality 100.0 %
Test CRC 36776FEA
Copy CRC 36776FEA
Copy OK
No errors occurred
AccurateRip summary
Track 1 accurately ripped (confidence 3) [A0B739F8] (AR v2)
Track 2 accurately ripped (confidence 3) [526E879D] (AR v2)
Track 3 accurately ripped (confidence 3) [82864829] (AR v2)
Track 4 accurately ripped (confidence 3) [32D72585] (AR v2)
Track 5 accurately ripped (confidence 3) [41DC1564] (AR v2)
Track 6 accurately ripped (confidence 3) [6C60EFB5] (AR v2)
Track 7 accurately ripped (confidence 3) [597D6EEF] (AR v2)
Track 8 accurately ripped (confidence 4) [31A4512B] (AR v2)
Track 9 accurately ripped (confidence 4) [5D4DD1C5] (AR v2)
Track 10 accurately ripped (confidence 4) [BF00D666] (AR v2)
Track 11 accurately ripped (confidence 4) [B51757EB] (AR v2)
Track 12 accurately ripped (confidence 4) [971C28EF] (AR v2)
Track 13 accurately ripped (confidence 4) [3AD84F3A] (AR v2)
Track 14 accurately ripped (confidence 4) [21E0BD24] (AR v2)
All tracks accurately ripped
End of status report
==== Log checksum DFEE9EEC822628EF4855D199240AC427F3907F78D6AAA4B3F77B7F46B08193C3 ====



Показать сообщения:    

Текущее время: 05-Дек 07:23

Часовой пояс: UTC + 3


Вы не можете начинать темы
Вы не можете отвечать на сообщения
Вы не можете редактировать свои сообщения
Вы не можете удалять свои сообщения
Вы не можете голосовать в опросах
Вы не можете прикреплять файлы к сообщениям
Вы не можете скачивать файлы