Жаклин Франсуа. Мадемуазель де Пари / Jacqueline Francois - Mademoiselle de Paris (Иван Ольшанецкий) [1968, фильм-концерт, DVB]


Статистика раздачи [Обновить пиров]
Размер:  1.34 GB   |    Зарегистрирован:  8 месяцев 23 дня   |    Скачан:  0 раз

Полного источника не было: Никогда

 
   
 
 
 

[Цитировать]

Жаклин Франсуа
Мадемуазель де Пари- Год выпуска: 1968
Страна: СССР
Жанр: фильм-концерт
Продолжительность: 00:50:38
Перевод: Студийный (одноголосый закадровый) (перевод интервью)
Русские субтитры: нет
Режиссер: Иван ОльшанецкийОписание: Жаклин Франсуа / Jacqueline François (1922-2009) — одна из величайших интерпретаторов французской песни. Она снималась в нескольких фильмах, а в других пела. Песню "Мадмуазель де Пари" Анри Конте и Поль Дюран написали для Жаклин Франсуа в 1948 году. Успех был ошеломительный, и вся творческая жизнь певицы отныне будет связана с этой песней.
В 60-х годах ее песни постоянно звучали на советском радио, по популярности в Союзе Франсуа не уступала Эдит Пиаф, Иву Монтану и Жаку Брелю. Шарль Азнавур многим обязан певице — именно Жаклин Франсуа стала исполнительницей его первых песен и помогла артисту пробиться на эстраде.
А в 1968 году в СССР был снят музыкальный фильм "Мадемуазель де Пари" о гастролях Жаклин в нашей стране.
Жаклин Франсуа — вечная, вневременная певица. Это голос сердца и любви, поющий о нежности и чувственности, как никто другой. Она любит джаз, записывала на французском языке многие американские стандарты выдающихся джазовых исполнителей. Ей присуща сдержанность и элегантность, а в науке вокала она обладает совершенными знаниями. (из статьи Марии Ольшанской "Les feuilles mortes")
Звучат песни:
01. Мадемуазель де Пари
02. Невозможная любовь
03. Опавшие листья
04. Песня с улицы
05. Мартина (исп. Жан Вальте / Jean Valtay)
06. Свинец в крыле (исп. Жан Вальте / Jean Valtay)
07. Свадебное путешествие
08. Когда любишь (исп. Жаклин Франсуа и Бернар Амороз / Bernard Amoroz)
09. Куда уходят цветы прошлого? (Баллада о невозвратимом времени)
10. Любовь, как птица улетает...
11. Душа поэта
Доп. информация: Запись со спутника (телеканал "Время: далекое и близкое").
Сэмпл: http://multi-up.com/892704
качество: DVB
формат: MPEG-PS (См. при проблемах с просмотром видео)
Видео: MPEG Video 2, 720x576@768x576 (4:3), 25 fps, ~3529 kbps avg, 0.340 bit/pixel
Аудио: 48 kHz, MPEG Audio 2, 2 ch, ~192.00 kbps avg

MediaInfo

Полное имя                               : H:\My Torrents\[apreder]Mademoiselle_de_Paris(1968)DVB.mpg
Формат : MPEG-PS
Размер файла : 1,34 Гбайт
Продолжительность : 50 м.
Режим общего битрейта : Переменный
Общий поток : 3796 Кбит/сек
Видео
Идентификатор : 224 (0xE0)
Формат : MPEG Video
Версия формата : Version 2
Профиль формата : Main@Main
Параметр BVOP формата : Да
Параметр матрицы формата : Выборочная
Параметр GOP формата : M=3, N=12
Продолжительность : 50 м.
Вид битрейта : Переменный
Битрейт : 3529 Кбит/сек
Ширина : 720 пикселей
Высота : 576 пикселей
Соотношение сторон : 4:3
Частота кадров : 25,000 кадров/сек
Стандарт вещания : PAL
Цветовое пространство : YUV
Субдискретизация насыщенности : 4:2:0
Битовая глубина : 8 бит
Тип развёртки : Чересстрочная
Порядок развёртки : Верхнее поле первое
Метод сжатия : С потерями
Бит/(Пиксели*Кадры) : 0.340
TimeCode_FirstFrame : 00:00:00:00
TimeCode_Source : Group of pictures header
Размер потока : 1,25 Гбайт (93%)
Аудио
Идентификатор : 192 (0xC0)
Формат : MPEG Audio
Версия формата : Version 1
Профиль формата : Layer 2
Продолжительность : 50 м.
Вид битрейта : Постоянный
Битрейт : 192 Кбит/сек
Каналы : 2 канала
Частота : 48,0 КГц
Метод сжатия : С потерями
Размер потока : 69,6 Мбайт (5%)

Скриншоты


Резервные скриншоты


-910/892√
[teatrix.ru].t17434.torrent 
Торрент: Зарегистрирован [ 2016-03-17 00:53 ] · 838B9641A5DD3AD2BA2F17DC8488F1EC5E1C3ACB

Скачать .torrent

Скачать

14 KB

Статус: проверено
Скачан: 0 раз
Размер: 1.34 GB
terms.php



Быстрый ответ

Имя:

      
Для отправки сообщений необходимо включить JavaScript
Показать сообщения:    

Текущее время: 09-Дек 20:28

Часовой пояс: UTC + 3


Вы можете начинать темы
Вы можете отвечать на сообщения
Вы не можете редактировать свои сообщения
Вы не можете удалять свои сообщения
Вы не можете голосовать в опросах
Вы не можете прикреплять файлы к сообщениям
Вы можете скачивать файлы