Белый автобус / The White Bus / Red White and Zero (Линдсей Андерсон / Lindsay Anderson) [1967, Великобритания, Трагикомедия, Абсурд, Сатира, HDTVRip] DVO НТВ+


Статистика раздачи [Обновить пиров]
Размер:  747 MB   |    Зарегистрирован:  8 месяцев 23 дня   |    Скачан:  0 раз

Полного источника не было: Никогда

 
   
 
 
 

[Цитировать]

Белый автобус / The White Bus / Red White and Zero
Страна: Великобритания
Жанр: Трагикомедия, Абсурд, Сатира
Год выпуска: 1967
Продолжительность: 00:45:23
Перевод: Профессиональный (двухголосый закадровый)
Cубтитры: нет
Режиссер: Линдсей Андерсон / Lindsay Anderson
В ролях: Патрисия Хили (девушка), Артур Лоу (мэр), Джули Перри (кондуктор), Стивен Мур (молодой человек), Энтони Хопкинс
Описание: Главная героиня уже сыта по горло работой в Лондоне. Она приходит на остановку, чтобы уехать домой, в Манчестер. В это время прибывает белый автобус, совершающий туристический рейс. Мэр и другие чиновники посещают фабрики, библиотеки и другим достопримечательности. Девушка присоединяется к ним...
Доп. информация: Фильм впервые с переводом на трекере
За предоставленный рип благодарим Ledy_X
"Спасибы" просьба ПИСАТЬ в теме, тем самым вы продлеваете жизнь раздаче.
Релиз
Качество видео: HDTVRip [Исходник 1080i]
Формат видео: AVI
Видео: 720x400 (1.80:1), 25 fps, XviD build 50 ~2099 kbps avg, 0.29 bit/pixel
Аудио: 48 kHz, AC3 Dolby Digital, 2/0 (L,R) ch, ~192 kbps

MediaInfo

Белый автобус - The White Bus [Rip by Ledy_X].avi
Format : AVI
Format/Info : Audio Video Interleave
File size : 747 MiB
Duration : 45mn 23s
Overall bit rate : 2 302 Kbps
Movie name : Белый автобус - The White Bus [Rip by Ledy_X]
Director : Rip by Ledy_X
Writing application : VirtualDubMod 1.5.10.3 | www.virtualdub-fr.org || (build 2550/release)
Copyright : Edich2
Comment : RuTracker.org
Video
ID : 0
Format : MPEG-4 Visual
Format profile : Advanced Simple@L5
Format settings, BVOP : 2
Format settings, QPel : No
Format settings, GMC : No warppoints
Format settings, Matrix : Custom
Codec ID : XVID
Codec ID/Hint : XviD
Duration : 45mn 23s
Bit rate : 2 100 Kbps
Width : 720 pixels
Height : 400 pixels
Display aspect ratio : 16:9
Frame rate : 25.000 fps
Color space : YUV
Chroma subsampling : 4:2:0
Bit depth : 8 bits
Scan type : Progressive
Compression mode : Lossy
Bits/(Pixel*Frame) : 0.292
Stream size : 682 MiB (91%)
Writing library : XviD 1.2.1 (UTC 2008-12-04)
Audio
ID : 1
Format : AC-3
Format/Info : Audio Coding 3
Mode extension : CM (complete main)
Format settings, Endianness : Big
Codec ID : 2000
Duration : 45mn 23s
Bit rate mode : Constant
Bit rate : 192 Kbps
Channel(s) : 2 channels
Channel positions : Front: L R
Sampling rate : 48.0 KHz
Bit depth : 16 bits
Compression mode : Lossy
Stream size : 62.3 MiB (8%)
Alignment : Split accross interleaves
Interleave, duration : 40 ms (1.00 video frame)
Interleave, preload duration : 500 ms

Скриншоты


[teatrix.ru].t17440.torrent 
Торрент: Зарегистрирован [ 2016-03-17 00:53 ] · 0EEA4C558E7F96C9871668B354D22CBEE3250444

Скачать .torrent

Скачать

15 KB

Статус: проверено
Скачан: 0 раз
Размер: 747 MB
terms.php



Быстрый ответ

Имя:

      
Для отправки сообщений необходимо включить JavaScript
Показать сообщения:    

Текущее время: 09-Дек 20:24

Часовой пояс: UTC + 3


Вы можете начинать темы
Вы можете отвечать на сообщения
Вы не можете редактировать свои сообщения
Вы не можете удалять свои сообщения
Вы не можете голосовать в опросах
Вы не можете прикреплять файлы к сообщениям
Вы можете скачивать файлы