13 маршрут. Обратный отсчёт - Рок-68 (Игорь Гасско) [1968, Документальный, музыкальный, VHSRip]


Статистика раздачи [Обновить пиров]
Размер:  557 MB   |    Зарегистрирован:  8 месяцев 18 дней   |    Скачан:  0 раз

Полного источника не было: Никогда

 
   
 
 
 

[Цитировать]

13 маршрут. Обратный отсчёт - Рок-68
Год выпуска: 1968
Страна: СССР
Жанр: Документальный, музыкальный
Продолжительность: 00:09:36 + 00:26:59
Перевод: Не требуется
Русские субтитры: нет
Режиссер: Игорь Гасско

Описание:
13 маршрут.
В 1968 году в Минске состоялся Первый фестиваль бит-ансамблей. Действо происходит в Минском радиотехническом институте, снимала кинохроника.
Обратный отсчёт - Рок-68
Фильм о том, как проходил и как готовились к фестивалю. Рассказывают участники фестиваля с позиции теперешнего времени.

Доп. информация: Лента лежала на полке, пока не была со всеми рабочими материалами по акту уничтожена в 1977 году. Но сценарист и оператор Эдуард Гайдук сохранил копию и в 1987 году показал фильм в Доме кино. Затем автор передал ленту музыкантам.
Релиз:
VHS предоставил некто Андрей
Автор релиза: pmv

качество: VHSRip
формат: AVI
Видео: 720x544 (720х424) (1.32:1), 25 fps, XviD build 50 ~1999 kbps avg, 0.20 bit/pixel
Аудио: 44.100 kHz, MPEG Layer 3, 1 ch, ~96.00 kbps avg

Список выпусков/серий

1 фильм. 13 маршрут.
2 фильм. Обратный отсчёт - Рок-68

MediaInfo

Формат : AVI
Формат/Информация : Audio Video Interleave
Размер файла : 145 Мбайт
Продолжительность : 9 м. 36 с.
Общий поток : 2106 Кбит/сек
Программа кодирования : VirtualDubMod 1.5.10.3 | www.virtualdub-fr.org || (build 2550/release)
Библиотека кодирования : VirtualDubMod build 2550/release
Видео
Идентификатор : 0
Формат : MPEG-4 Visual
Профиль формата : Advanced Simple@L5
Параметр BVOP формата : 2
Параметр QPel формата : Нет
Параметр GMC формата : Без точки перехода
Параметр матрицы формата : Default (H.263)
Идентификатор кодека : XVID
Идентификатор кодека/Подсказка : XviD
Продолжительность : 9 м. 36 с.
Битрейт : 2000 Кбит/сек
Ширина : 720 пикселей
Высота : 544 пикселя
Соотношение сторон : 4:3
Частота кадров : 25,000 кадров/сек
Цветовое пространство : YUV
Субдискретизация насыщенности : 4:2:0
Битовая глубина : 8 бит
Тип развёртки : Прогрессивная
Метод сжатия : С потерями
Бит/(Пиксели*Кадры) : 0.204
Размер потока : 137 Мбайт (95%)
Библиотека кодирования : XviD 1.2.1 (UTC 2008-12-04)
Аудио
Идентификатор : 1
Формат : MPEG Audio
Версия формата : Version 1
Профиль формата : Layer 3
Идентификатор кодека : 55
Идентификатор кодека/Подсказка : MP3
Продолжительность : 9 м. 36 с.
Вид битрейта : Постоянный
Битрейт : 96,0 Кбит/сек
Каналы : 1 канал
Частота : 44,1 КГц
Метод сжатия : С потерями
Размер потока : 6,60 Мбайт (5%)
Выравнивание : Разделение по промежуткам
Продолжительность промежутка : 40 мс. (1,00 видеокадр)
Время предзагрузки промежутка : 500 мс.

Скриншоты

13 маршрут.

Обратный отсчёт - Рок-68
[teatrix.ru].t17460.torrent 
Торрент: Зарегистрирован [ 2016-03-17 00:53 ] · D4944C8434B445400223AFF50CCB094C798B911F

Скачать .torrent

Скачать

12 KB

Статус: проверено
Скачан: 0 раз
Размер: 557 MB
terms.php



Быстрый ответ

Имя:

      
Для отправки сообщений необходимо включить JavaScript
Показать сообщения:    

Текущее время: 04-Дек 13:17

Часовой пояс: UTC + 3


Вы можете начинать темы
Вы можете отвечать на сообщения
Вы не можете редактировать свои сообщения
Вы не можете удалять свои сообщения
Вы не можете голосовать в опросах
Вы не можете прикреплять файлы к сообщениям
Вы можете скачивать файлы