Конвенция World Class 2010 / 16 Международный фестиваль физкультуры и спорта [2010, фитнес для инструкторов, DVDRip, RUS] (Видеоурок)


Статистика раздачи [Обновить пиров]
Размер:  2.3 GB   |    Зарегистрирован:  8 месяцев 24 дня   |    Скачан:  0 раз

Полного источника не было: Никогда

Личеров:  6  [  0 KB/s  ]   Подробная статистика пиров
 
   
 
 
 

[Цитировать]


16 Международный фестиваль физкультуры и спорта
Страна: РОССИЯ
Год выпуска: 2010
Язык: Русский
Перевод: Не требуется
Тематика: Фитнес - для инструкторов
Тип раздаваемого материала: Видеоурок
Продолжительность: 04:08:03
-Описание:
Тренировки от лучших инструкторов России! Обучающие уроки по всем направлениям фитнеса.
С 14 по 18 апреля в Москве, в СК «Олимпийский» при поддержке Министерства спорта, туризма и молодежной политики РФ, Правительства Москвы, Департамента физической культуры и спорта г. Москвы, Департамента образования г. Москвы, Всероссийской Политической Партии «Единая Россия», Федерации фитнес-аэробики России, сетей фитнес-клубов World Class и «ФизКульт», SPORT-time состоялся 16-й Международный Фестиваль физкультуры и спорта «Наш выбор – здоровый образ жизни!». Самое значимое событие в области массовой физической культуры России и Восточной Европы посетило около 16 000 сторонников здорового образа жизни, фитнес-инструкторов, клиентов фитнес-клубов, профессиональных спортсменов, тренеров и болельщиков, руководителей и специалистов фитнес-индустрии, учителей и школьников более чем из 70 регионов России! Мировой уровень презентаций и мастеров, высочайшее качество подачи материала и грамотная организация – неизменные составляющие Фестиваля. 2010 год не стал исключением!
"Международный фестиваль физкультуры и спорта для абсолютного большинства людей, которые работают в фитнес-индустрии, — знаковое событие. В прошлом году фестиваль проводился уже в 16-й раз (и как минимум восемь последних — в СК «Олимпийский»). Сюда приезжают лучшие европейские и мировые презентеры. Здесь всегда можно встретить тех, кого очень давно не видел. В общем, фестиваля всегда ждут и на фестиваль всегда стремятся. На этот раз природа внесла свои коррективы: из-за извержения вулкана к нам не смогли долететь некоторые иностранные звезды. Но те, кто долетел, отожгли и за себя, и за отсутствующих." (Алексей Василенко)-В данном релизе представлены следующие уроки конвенции:
1 - Advanced Pilates and More (Д. Гришин, С. Ивашнева) - #82
2 - JustMat (Ю. Павлова, А. Бочарова) - #84
3 - FBI Pilates (Ю. Майорова, М. Мартынова, И. Пономарева) - #85
4 - Фокус на Баланс (И. Артамонова, О. Личак) - #87
5 - Stretch () - #88

-Спасибо 00winx00 за DVD
Качество: DVDRip
Формат: AVI 1.0 (VFW 1.1)
Видео кодек: XviD build 50
Аудио кодек: MPEG Layer 3
Аудио: MPEG-1 Audio layer 3, 128 Kbps, CBR, 44.1 KHz, 2 ch.

Скриншоты видео и технические данныеWC2010_01 - Advanced Pilates and More (Д. Гришин, С. Ивашнева) 82


Видео: XviD, 640 x 480, 4/3, 1 203 Kbps, 25.000 fps, 0.157 b/px
Продолжительность: 57mn 11s-

WC2010_02 - JustMat (Ю. Павлова, А. Бочарова) 84


Видео: XviD, 640 x 480, 4/3, 1 269 Kbps, 25.000 fps, 0.165 b/px
Продолжительность: 43mn 33s-

WC2010_03 - FBI Pilates (Ю. Майорова, М. Мартынова, И. Пономарева) 85


Видео: XviD, 640 x 480, 4/3, 1 199 Kbps, 25.000 fps, 0.156 b/px
Продолжительность: 46mn 29s-

WC2010_04 - Фокус на Баланс (И. Артамонова, О. Личак) 87


Видео: XviD, 640 x 480, 4/3, 1 205 Kbps, 25.000 fps, 0.157 b/px
Продолжительность: 51mn 38s-

WC2010_05 - Stretch () 88


Видео: XviD, 640 x 480, 4/3, 1 058 Kbps, 25.000 fps, 0.138 b/px
Продолжительность: 49mn 22s
Урок проводился в полутемном зале при свечах. К сожалению, не смогла найти имя инструктора... Ни в DVD, ни на сайте - нет информации.
Она не представляется... Если кто знает, подскажите, пожалуйста!-

MI DVD

Complete name                    : \WC2010\VIDEO_TS\VTS_01_1.VOB
Format                           : MPEG-PS
File size                        : 1 024 MiB
Duration                         : 1h 1mn
Overall bit rate                 : 2 313 Kbps
[br]
Video
ID                               : 224 (0xE0)
Format                           : MPEG Video
Format version                   : Version 2
Format profile                   : Main@Main
Format settings, BVOP            : Yes
Format settings, Matrix          : Default
Format settings, GOP             : M=3, N=12
Duration                         : 1h 1mn
Bit rate mode                    : Variable
Bit rate                         : 2 043 Kbps
Nominal bit rate                 : 8 500 Kbps
Width                            : 720 pixels
Height                           : 576 pixels
Display aspect ratio             : 4:3
Frame rate                       : 25.000 fps
Standard                         : PAL
Color space                      : YUV
Chroma subsampling               : 4:2:0
Bit depth                        : 8 bits
Scan type                        : Interlaced
Scan order                       : Top Field First
Bits/(Pixel*Frame)               : 0.197
Stream size                      : 904 MiB (88%)
[br]
Audio
ID                               : 192 (0xC0)
Format                           : MPEG Audio
Format version                   : Version 1
Format profile                   : Layer 2
Mode                             : Joint stereo
Mode extension                   : Intensity Stereo + MS Stereo
Duration                         : 1h 1mn
Bit rate mode                    : Constant
Bit rate                         : 224 Kbps
Channel(s)                       : 2 channels
Sampling rate                    : 48.0 KHz
Stream size                      : 99.2 MiB (10%)
[br]
Menu
Раздача от группы
[teatrix.ru].t17461.torrent 
Торрент: Зарегистрирован [ 2016-03-17 00:55 ] · F871432556219C5D47F1AD81461535BB9F9C2BCE

Скачать .torrent

Скачать

12 KB

Статус: проверено
Скачан: 0 раз
Размер: 2.3 GB
terms.php



Быстрый ответ

Имя:

      
Для отправки сообщений необходимо включить JavaScript
Показать сообщения:    

Текущее время: 10-Дек 19:40

Часовой пояс: UTC + 3


Вы можете начинать темы
Вы можете отвечать на сообщения
Вы не можете редактировать свои сообщения
Вы не можете удалять свои сообщения
Вы не можете голосовать в опросах
Вы не можете прикреплять файлы к сообщениям
Вы можете скачивать файлы