Конвенция World Class 2009 / 15 Международный фестиваль физкультуры и спорта [2009, фитнес для инструкторов, DVDRip, RUS] (Видеоурок)


Статистика раздачи [Обновить пиров]
Размер:  1.74 GB   |    Зарегистрирован:  8 месяцев 24 дня   |    Скачан:  0 раз

Полного источника не было: Никогда

Личеров:  3  [  0 KB/s  ]   Подробная статистика пиров
 
   
 
 
 

[Цитировать]


15 Международный фестиваль физкультуры и спорта
Страна: РОССИЯ
Год выпуска: 2009
Язык: Русский
Перевод: Не требуется
Тематика: Фитнес - для инструкторов
Тип раздаваемого материала: Видеоурок
Продолжительность: 04:08:03
-Описание:
Тренировки от лучших инструкторов России! Обучающие уроки по всем направлениям фитнеса.
20-24 мая в Москве в СК «Олимпийский» состоялся XV Международный Фестиваль физкультуры и спорта «Наш выбор - здоровый образ жизни» при поддержке Правительства Москвы, Департамента физической культуры и спорта г. Москвы, Департамента образования г. Москвы, Всероссийской Политической Партии «Единая Россия», Федерации фитнес-аэробики России, РГУФКСиТ, сетей фитнес-клубов World Class и «ФизКульт».
Юбилейный Фестиваль собрал около 15 000 участников более чем из 70 регионов России.-В данном релизе представлены следующие уроки конвенции:
01. Д. Емельянова, М. Найман "Hard Ball 09 "
03. Сameron Shayne "Budokon Floating - Inverting"
04. Мария Камаева "Pilates Mat Integrate"
05. А. Мальшаков "Body Power"
07. Н. Гончарова, В. Герасименко "Пространство вариантов"
08. Светлана Фунтикова "Pilates Bend"
09. Наталья Чалова "Dance Stretch"
10. О. Личак, М. Мартынова "Power Pilates"
Не вошли в релиз:
02. Н. Чадина "BOSU Training 09" - 01:41
06. О. Абрамова,Ю. Павлова "Power Lab" 03:18
(Я сохранила нумерацию исходника)

-Спасибо stasbetman за DVD
Качество: DVDRip
Формат: AVI 1.0 (VFW 1.1)
Видео кодек: XviD build 50
Аудио кодек: MPEG Layer 3
Видео: XviD, 688 x 384, 16/9, 1 259 Kbps, 25.000 fps, 0.191 b/px
Аудио: MPEG-1 Audio layer 3, 128 Kbps, CBR, 48.0 KHz, 2 ch.

Скриншоты видео

Д. Емельянова, М. Найман "Hard Ball 09" = 20:41


Сameron Shayne "Budokon Floating - Inverting" = 05:22


Жаль, что Камерона ТАК мало!

Мария Камаева "Pilates Mat Integrate" = 29:05


А. Мальшаков "Body Power" = 09:52


Н. Гончарова, В. Герасименко "Пространство вариантов" = 25:25


Светлана Фунтикова "Pilates Bend" = 24:36


Наталья Чалова "Dance Stretch" = 32:00


О. Личак, М. Мартынова "Power Pilates" = 24:36


MI DVD

Complete name                    : \WC2009\VIDEO_TS\VTS_01_1.VOB
Format                           : MPEG-PS
File size                        : 1 024 MiB
Duration                         : 8mn 23s
Overall bit rate                 : 17.1 Mbps
[br]
Video
ID                               : 224 (0xE0)
Format                           : MPEG Video
Format version                   : Version 2
Format profile                   : Main@Main
Format settings, BVOP            : No
Format settings, Matrix          : Default
Format settings, GOP             : M=1, N=15
Duration                         : 8mn 23s
Bit rate mode                    : Variable
Bit rate                         : 16.5 Mbps
Nominal bit rate                 : 9 400 Kbps
Width                            : 720 pixels
Height                           : 576 pixels
Display aspect ratio             : 4:3
Frame rate                       : 25.000 fps
Standard                         : PAL
Color space                      : YUV
Chroma subsampling               : 4:2:0
Bit depth                        : 8 bits
Scan type                        : Interlaced
Scan order                       : Top Field First
Bits/(Pixel*Frame)               : 1.592
Stream size                      : 990 MiB (97%)
[br]
Audio
ID                               : 128 (0x80)
Format                           : AC-3
Format/Info                      : Audio Coding 3
Mode extension                   : CM (complete main)
Duration                         : 8mn 22s
Bit rate mode                    : Constant
Bit rate                         : 224 Kbps
Channel(s)                       : 2 channels
Channel positions                : Front: L R
Sampling rate                    : 48.0 KHz
Bit depth                        : 16 bits
Stream size                      : 13.4 MiB (1%)
[br]
Menu
Раздача от группы
[teatrix.ru].t17465.torrent 
Торрент: Зарегистрирован [ 2016-03-17 00:54 ] · B0E4EEA9DA410841DCEA17F44C18DCAB2963CA6C

Скачать .torrent

Скачать

19 KB

Статус: проверено
Скачан: 0 раз
Размер: 1.74 GB
terms.php



Быстрый ответ

Имя:

      
Для отправки сообщений необходимо включить JavaScript
Показать сообщения:    

Текущее время: 10-Дек 11:51

Часовой пояс: UTC + 3


Вы можете начинать темы
Вы можете отвечать на сообщения
Вы не можете редактировать свои сообщения
Вы не можете удалять свои сообщения
Вы не можете голосовать в опросах
Вы не можете прикреплять файлы к сообщениям
Вы можете скачивать файлы