Семнадцать мгновений весны. Последний дубль ... [2013, документальное кино, SATRip]


Статистика раздачи [Обновить пиров]
Размер:  933 MB   |    Зарегистрирован:  8 месяцев 17 дней   |    Скачан:  0 раз

Полного источника не было: Никогда

 
   
 
 
 

[Цитировать]

Семнадцать мгновений весны. Последний дубль ... Год выпуска: 2013
Страна: Россия
Жанр: документальное кино
Продолжительность: 00:52:04
Режиссер: Сергей Кожевников
Описание: 40 лет назад - 11 августа 1973 года вышел телесериал "Семнадцать мгновений весны".
11 августа 1973 года. 19 часов 30 минут. Штирлиц едет на работу. По той же дороге, на такой же машине, спустя 40 лет со дня съёмок этой сцены, едет ведущий фильма… Малоизвестные подробности о съёмках знаменитой киноленты - основа фильма. Вместе со съемочной группой зритель пройдет по местам боевой славы Отто фон Штирлица. Узнает, как сегодня выглядит его дом в предместье Берлина. Увидит улицы, по которым ходил любимый герой.
Одна такая прогулка закончилась забавным эпизодом. В перерыве между съемками, Вячеслав Тихонов шёл по Берлину– прямо в нацистской форме, чтобы не терять времени на переодевание. Прохожие поначалу шарахались от штандартенфюрера СС. Но потом к Тихонову подошли два, особо бдительных, гражданина и хотели было препроводить его в полицейский участок. Когда недоразумение утряслось, один из них попросил примерить мундир и фуражку со словами – "всё, как настоящее!"
Зритель впервые узнает, кого режиссер Татьяна Лиознова видела в роли Штирлица. Поначалу кандидатура Вячеслава Тихонова даже не рассматривалась. В чем упрекают создателей картины историки. Из-за чего Иосиф Кобзон ругался с Лиозновой, и поначалу не хотел исполнять песни сериала? Почему Василий Лановой так и не попробовал отборного французского коньяка, который прислал ему настоящий генерал Вольф, а Вячеслав Тихонов хотел наотрез отказаться от главной роли своей жизни? Неизвестные истории, которые остались за кадром народного сериала, иногда смешные, иногда трогательные, прозвучат в воспоминаниях Олега Табакова, Василия Ланового, Вячеслава Шалевича, Элеоноры Шашковой, Светланы Светличной, Алексея Сафонова, режиссера Сергея Соловьева, композитора Максима Дунаевского, ветерана спецслужб Михаила Любимова, историка Константина Залесского.

Источник: http://teatrix.ru/viewtopic.php?t=4508281

Доп.информация

Производство: ТК Останкино , 2013
Продюсеры: Сергей Медведев, Олег Вольнов
Автор сценария: Анатолий Ярошевский
Режиссер: Сергей Кожевников
Сравнение скриншотов с раздачей http://teatrix.ru/viewtopic.php?t=4511094Качество: SATRip
Формат: AVI
Видео: DivX, 720x576, 16:9, 2300 kbps, 25 fps
Аудио: Mp3, 192 kbps, 48.0 kHz, 2 ch

MediaInfo

Видео
Идентификатор : 0
Формат : MPEG-4 Visual
Профиль формата : Simple@L1
Параметр BVOP формата : Нет
Параметр QPel формата : Нет
Параметр GMC формата : Без точки перехода
Параметр матрицы формата : Default (H.263)
Идентификатор кодека : DIVX
Идентификатор кодека/Информация : Project Mayo
Идентификатор кодека/Подсказка : DivX 4
Продолжительность : 52 м.
Битрейт : 2300 Кбит/сек
Ширина : 720 пикселей
Высота : 576 пикселей
Соотношение сторон : 16:9
Частота кадров : 25,000 кадров/сек
Стандарт вещания : PAL
Цветовое пространство : YUV
Субдискретизация насыщенности : 4:2:0
Битовая глубина : 8 бит
Тип развёртки : Прогрессивная
Метод сжатия : С потерями
Бит/(Пиксели*Кадры) : 0.222
Размер потока : 857 Мбайт (92%)
Библиотека кодирования : Lavc53.6.1
Аудио
Идентификатор : 1
Формат : MPEG Audio
Версия формата : Version 1
Профиль формата : Layer 3
Режим : Joint stereo
Расширение режима : MS Stereo
Идентификатор кодека : 55
Идентификатор кодека/Подсказка : MP3
Продолжительность : 52 м.
Вид битрейта : Постоянный
Битрейт : 192 Кбит/сек
Каналы : 2 канала
Частота : 48,0 КГц
Метод сжатия : С потерями
Размер потока : 71,5 Мбайт (8%)
Выравнивание : Соединение по промежуткам
Продолжительность промежутка : 24 мс. (0,60 видеокадр)
Библиотека кодирования : LAME3.98.4

Скриншоты

[teatrix.ru].t17486.torrent 
Торрент: Зарегистрирован [ 2016-03-17 00:53 ] · 6B1D44C5D3634988B23486D2765E487798779074

Скачать .torrent

Скачать

19 KB

Статус: проверено
Скачан: 0 раз
Размер: 933 MB
terms.php



Показать сообщения:    

Текущее время: 03-Дек 18:41

Часовой пояс: UTC + 3


Вы не можете начинать темы
Вы не можете отвечать на сообщения
Вы не можете редактировать свои сообщения
Вы не можете удалять свои сообщения
Вы не можете голосовать в опросах
Вы не можете прикреплять файлы к сообщениям
Вы можете скачивать файлы