Школа йоги для всех: Плоский живот [2009 г., Йога DVDRip, RUS]


Статистика раздачи [Обновить пиров]
Размер:  1.12 GB   |    Зарегистрирован:  8 месяцев 16 дней   |    Скачан:  0 раз

Полного источника не было: Никогда

 
   
 
 
 

[Цитировать]

-Школа йоги для всех: Плоский живот- - Год выпуска: 2009
Страна: США
Жанр: Йога
Продолжительность: 00:43:07 +00:14:25 + 00:09:27
Язык: Русский (Двухголосый закадровый)
-Описание:Настало время привести свое тело в порядок, чтобы чувствовать себя на все 100%!
С помощью этой программы Вы сможете укрепить мышцы средней части тела, сбросить лишние килограммы и сделать Вашу талию неотразимой. Программа включает два комплекса:
Комплекс №1: Упражнения для укрепления пресса (10 минут)
Этот комплекс построен по принципу интервальных тренировок, используемых профессиональными спортсменами. Последние научные исследования подтверждают, что сочетание классических асан йоги и интенсивных физических упражнений позволяет добиться максимального результата для снижения веса.
Комплекс №2: Упражнения для средней части тела (40 минут)
Эти упражнения помогут укрепить Ваши мышцы и повысить выносливость. Регулярно выполняя их, Вы сможете сформировать красивое, стройное и сильное тело, о котором Вы всегда мечтали!
Проконсультируйтесь со своим врачом, прежде чем приступить к этим или другим упражнениям.
-Качество: DVDRip
Формат: AVI
Видео кодек: XViD
Аудио кодек: AC3
Видео: 704 x 528, 4:3, (1.333) at 25.000 fps, ~ 2152-2209 Кбит/сек
Аудио #1: 2 каналов, 48,0 КГц, ~ 192 Кбит/сек (Русский)-

MediaInfoШкола йоги для всех Плоский живот - общеукрепляющий курс

олное имя                       : Школа йоги для всех Плоский живот - общеукрепляющий курс.avi
Формат                           : AVI
Формат/Информация                : Audio Video Interleave
Размер файла                     : 744 Мбайт
Продолжительность                : 43 м.
Общий поток                      : 2411 Кбит/сек
Программа кодирования            : VirtualDubMod 1.5.10.3 | www.virtualdub-fr.org || (build 2550/release)
Библиотека кодирования           : VirtualDubMod build 2550/release
[br]
Видео
Идентификатор                    : 0
Формат                           : MPEG-4 Visual
Профиль формата                  : Advanced Simple@L5
Параметр BVOP формата            : 4
Параметр QPel формата            : Нет
Параметр GMC формата             : Без точки перехода
Параметр матрицы формата         : Выборочная
Идентификатор кодека             : XVID
Идентификатор кодека/Подсказка   : XviD
Продолжительность                : 43 м.
Битрейт                          : 2209 Кбит/сек
Ширина                           : 704 пикс.
Высота                           : 528 пикс.
Соотношение сторон               : 4:3
Частота кадров                   : 25,000 кадр/сек
Цветовое пространство            : YUV
Подвыборка цветности             : 4:2:0
Битовая глубина                  : 8 бит
Тип развёртки                    : Прогрессивная
Метод сжатия                     : С потерями
Бит/(Пиксели*Кадры)              : 0.238
Размер потока                    : 681 Мбайт (92%)
Библиотека кодирования           : XviD 1.2.1 (UTC 2008-12-04)
[br]
Аудио
Идентификатор                    : 1
Формат                           : AC-3
Формат/Информация                : Audio Coding 3
Расширение режима                : CM (complete main)
Идентификатор кодека             : 2000
Продолжительность                : 43 м.
Вид битрейта                     : Постоянный
Битрейт                          : 192 Кбит/сек
Канал(ы)                         : 2 канала(ов)
Расположение каналов             : Front: L R
Частота                          : 48,0 КГц
Битовая глубина                  : 16 бит
Метод сжатия                     : С потерями
Размер потока                    : 59,2 Мбайт (8%)
Выравнивание                     : Разделение по промежуткам
Продолжительность промежутка     : 40  мс. (1,00 видеокадр)
Время предзагрузки промежутка    : 500 ms

Школа йоги для всех Плоский живот - инструкции

Полное имя                       : Школа йоги для всех Плоский живот - инструкции.avi
Формат                           : AVI
Формат/Информация                : Audio Video Interleave
Размер файла                     : 245 Мбайт
Продолжительность                : 14 м.
Общий поток                      : 2371 Кбит/сек
Программа кодирования            : VirtualDubMod 1.5.10.3 | www.virtualdub-fr.org || (build 2550/release)
Библиотека кодирования           : VirtualDubMod build 2550/release
[br]
Видео
Идентификатор                    : 0
Формат                           : MPEG-4 Visual
Профиль формата                  : Advanced Simple@L5
Параметр BVOP формата            : 4
Параметр QPel формата            : Нет
Параметр GMC формата             : Без точки перехода
Параметр матрицы формата         : Выборочная
Идентификатор кодека             : XVID
Идентификатор кодека/Подсказка   : XviD
Продолжительность                : 14 м.
Битрейт                          : 2170 Кбит/сек
Ширина                           : 704 пикс.
Высота                           : 528 пикс.
Соотношение сторон               : 4:3
Частота кадров                   : 25,000 кадр/сек
Цветовое пространство            : YUV
Подвыборка цветности             : 4:2:0
Битовая глубина                  : 8 бит
Тип развёртки                    : Прогрессивная
Метод сжатия                     : С потерями
Бит/(Пиксели*Кадры)              : 0.233
Размер потока                    : 224 Мбайт (91%)
Библиотека кодирования           : XviD 1.2.1 (UTC 2008-12-04)
[br]
Аудио
Идентификатор                    : 1
Формат                           : AC-3
Формат/Информация                : Audio Coding 3
Расширение режима                : CM (complete main)
Идентификатор кодека             : 2000
Продолжительность                : 14 м.
Вид битрейта                     : Постоянный
Битрейт                          : 192 Кбит/сек
Канал(ы)                         : 2 канала(ов)
Расположение каналов             : Front: L R
Частота                          : 48,0 КГц
Битовая глубина                  : 16 бит
Метод сжатия                     : С потерями
Размер потока                    : 19,8 Мбайт (8%)
Выравнивание                     : Разделение по промежуткам
Продолжительность промежутка     : 40  мс. (1,00 видеокадр)
Время предзагрузки промежутка    : 500 ms

Школа йоги для всех Плоский живот - упражнения для пресса

Полное имя                       : Школа йоги для всех Плоский живот - упражнения для пресса.avi
Формат                           : AVI
Формат/Информация                : Audio Video Interleave
Размер файла                     : 159 Мбайт
Продолжительность                : 9 м. 27 с.
Общий поток                      : 2354 Кбит/сек
Программа кодирования            : VirtualDubMod 1.5.10.3 | www.virtualdub-fr.org || (build 2550/release)
Библиотека кодирования           : VirtualDubMod build 2550/release
[br]
Видео
Идентификатор                    : 0
Формат                           : MPEG-4 Visual
Профиль формата                  : Advanced Simple@L5
Параметр BVOP формата            : 4
Параметр QPel формата            : Нет
Параметр GMC формата             : Без точки перехода
Параметр матрицы формата         : Выборочная
Идентификатор кодека             : XVID
Идентификатор кодека/Подсказка   : XviD
Продолжительность                : 9 м. 27 с.
Битрейт                          : 2152 Кбит/сек
Ширина                           : 704 пикс.
Высота                           : 528 пикс.
Соотношение сторон               : 4:3
Частота кадров                   : 25,000 кадр/сек
Цветовое пространство            : YUV
Подвыборка цветности             : 4:2:0
Битовая глубина                  : 8 бит
Тип развёртки                    : Прогрессивная
Метод сжатия                     : С потерями
Бит/(Пиксели*Кадры)              : 0.232
Размер потока                    : 146 Мбайт (91%)
Библиотека кодирования           : XviD 1.2.1 (UTC 2008-12-04)
[br]
Аудио
Идентификатор                    : 1
Формат                           : AC-3
Формат/Информация                : Audio Coding 3
Расширение режима                : CM (complete main)
Идентификатор кодека             : 2000
Продолжительность                : 9 м. 26 с.
Вид битрейта                     : Постоянный
Битрейт                          : 192 Кбит/сек
Канал(ы)                         : 2 канала(ов)
Расположение каналов             : Front: L R
Частота                          : 48,0 КГц
Битовая глубина                  : 16 бит
Метод сжатия                     : С потерями
Размер потока                    : 13,0 Мбайт (8%)
Выравнивание                     : Разделение по промежуткам
Продолжительность промежутка     : 40  мс. (1,00 видеокадр)
Время предзагрузки промежутка    : 500 ms

Скриншоты

Школа йоги для всех Плоский живот - общеукрепляющий курс
Школа йоги для всех Плоский живот - инструкции
Школа йоги для всех Плоский живот - упражнения для пресса
Если в релизе не открываются скриншоты, постер, нет сида или нашли ошибку, пишите в Л/С
[teatrix.ru].t17504.torrent 
Торрент: Зарегистрирован [ 2016-03-17 00:54 ] · CF65A7518854476AA9E3A49363D28B95FEEF0AA0

Скачать .torrent

Скачать

12 KB

Статус: проверено
Скачан: 0 раз
Размер: 1.12 GB
terms.php



Быстрый ответ

Имя:

      
Для отправки сообщений необходимо включить JavaScript
Показать сообщения:    

Текущее время: 02-Дек 21:15

Часовой пояс: UTC + 3


Вы можете начинать темы
Вы можете отвечать на сообщения
Вы не можете редактировать свои сообщения
Вы не можете удалять свои сообщения
Вы не можете голосовать в опросах
Вы не можете прикреплять файлы к сообщениям
Вы можете скачивать файлы