Доктор Кто: Снова о Докторах / Doctor Who: The Doctors Revisited / Сезон: 1 / Серии: 3 (11) (Джеймс Брейлсфорд / James Brailsford) [2013, фильм о фильме, TVRip] VO (Владислав Вайтар) + Original


Статистика раздачи [Обновить пиров]
Размер:  306 MB   |    Зарегистрирован:  8 месяцев 17 дней   |    Скачан:  0 раз

Полного источника не было: Никогда

 
   
 
 
 

[Цитировать]

Доктор Кто: Снова о Докторах / Doctor Who: The Doctors Revisited
Год выпуска: 2013
Страна: Великобритания
Жанр: фильм о фильме
Продолжительность: 00:27:00-Перевод: Одноголосый закадровый Иван Шорс-Русские субтитры: нет
Режиссёр: Джеймс Брейлсфорд / James Brailsford
В ролях: Дэвид Теннант, Нил Гейман, Джон Барроумэн, Стивен Моффат, Каро Скиннер, Питер Пёрвс и Уильям Рассел.
Описание: Одиннадцать спецвыпусков, приуроченных к 50-тилетнему юбилею "Доктора Кто". В каждой серии рассказывается о соответствующем Докторе, его спутниках и врагах, с которыми им пришлось сталкиваться.
Доп. информация: перевод группы TrueTransLate.
Переводчики: Little_Squirrel, Lori2014. Редактор перевода Little_Squirrel.
Озвучка: Станислав Шорс
Ссылка на предыдущие и альтернативные раздачи: http://teatrix.ru/tracker.php?nm=The%20Doctors%20Revisited
Сэмпл: http://sendfile.su/854012
Качество: TVRip
Формат: AVI
Видео кодек: XviD
Аудио кодек: MP3
Видео: XviD, 640:352 (16:9), 25.000 fps, 1 208 Kbps, 0.214 Bits/(Pixel*Frame)
Аудио: MP3 44100Hz stereo 256kbps [Audio]
Аудио 2: MP3, 44.1 KHz, 2 channels, 128 Kbps
Субтитры: Отсутствуют

MediaInfo

General
Complete name : D:\Снова о Докторах\The Doctors Revisited\The Doctors Revisited - The Third Doctor (VO VladislavVaitar).avi
Format : AVI
Format/Info : Audio Video Interleave
File size : 306 MiB
Duration : 26mn 43s
Overall bit rate : 1 598 Kbps
Writing application : VirtualDubMod 1.5.10.2 (build 2540/release)
Writing library : VirtualDubMod build 2540/release
Video
ID : 0
Format : MPEG-4 Visual
Format profile : Advanced Simple@L5
Format settings, BVOP : Yes
Format settings, QPel : No
Format settings, GMC : No warppoints
Format settings, Matrix : Default (H.263)
Codec ID : XVID
Codec ID/Hint : XviD
Duration : 26mn 43s
Bit rate : 1 200 Kbps
Width : 640 pixels
Height : 352 pixels
Display aspect ratio : 16:9
Frame rate : 25.000 fps
Color space : YUV
Chroma subsampling : 4:2:0
Bit depth : 8 bits
Scan type : Progressive
Compression mode : Lossy
Bits/(Pixel*Frame) : 0.213
Stream size : 229 MiB (75%)
Writing library : XviD 65
Audio #1
ID : 1
Format : MPEG Audio
Format version : Version 1
Format profile : Layer 3
Codec ID : 55
Codec ID/Hint : MP3
Duration : 26mn 43s
Bit rate mode : Constant
Bit rate : 256 Kbps
Channel(s) : 2 channels
Sampling rate : 44.1 KHz
Compression mode : Lossy
Stream size : 48.9 MiB (16%)
Alignment : Split accross interleaves
Interleave, duration : 40 ms (1.00 video frame)
Interleave, preload duration : 500 ms
Audio #2
ID : 2
Format : MPEG Audio
Format version : Version 1
Format profile : Layer 3
Codec ID : 55
Codec ID/Hint : MP3
Duration : 26mn 43s
Bit rate mode : Constant
Bit rate : 128 Kbps
Channel(s) : 2 channels
Sampling rate : 48.0 KHz
Compression mode : Lossy
Stream size : 24.5 MiB (8%)
Alignment : Aligned on interleaves
Interleave, duration : 40 ms (1.00 video frame)
Interleave, preload duration : 504 ms
Writing library : LAME3.99r
Encoding settings : -m s -V 4 -q 0 -lowpass 17 -b 128

Скриншоты

[teatrix.ru].t17520.torrent 
Торрент: Зарегистрирован [ 2016-03-17 00:53 ] · 68B1A63D42D23E3D4A37E59E56C4EBB43E3C5399

Скачать .torrent

Скачать

13 KB

Статус: проверено
Скачан: 0 раз
Размер: 306 MB
terms.php



Показать сообщения:    

Текущее время: 03-Дек 03:18

Часовой пояс: UTC + 3


Вы не можете начинать темы
Вы не можете отвечать на сообщения
Вы не можете редактировать свои сообщения
Вы не можете удалять свои сообщения
Вы не можете голосовать в опросах
Вы не можете прикреплять файлы к сообщениям
Вы можете скачивать файлы