В гостях у Муслима Магомаева. Тито Гобби (Режиссер А. Шкурин) [1992, Авторская программа, музыка, интервью, SATRip]


Статистика раздачи [Обновить пиров]
Размер:  658 MB   |    Зарегистрирован:  8 месяцев 18 дней   |    Скачан:  0 раз

Полного источника не было: Никогда

 
   
 
 
 

[Цитировать]

В гостях у Муслима Магомаева. Тито Гобби
Год выпуска: 1992
Страна: Россия
Жанр: Авторская программа, музыка, интервью
Продолжительность: 00:44:59
Перевод: Не требуется
Русские субтитры: нет
Режиссер: Режиссер А. Шкурин

Описание: Святослав Бэлза в программе "Музыка в эфире", в передаче «В гостях у Муслима Магомаева», четвертая встреча. В фильме использованы записи из видеоархива Муслима .Магомаева. Интересно послушать, как о великом певце Тито Гоби рассказывает не менее замечательный певец Муслим Магомаев.
Доп. информация: Релиз:
Благодарность за релиз: maslovagal
Сэмпл: http://multi-up.com/894653
качество: SATRip
формат: AVI
Видео: 704x528 (1.33:1), 25 fps, DivX Codec 5.05 ~1842 kbps avg, 0.20 bit/pixel
Аудио: 48 kHz, MPEG Layer 3, 2 ch, ~192.00 kbps avg

Список выпусков/серий

1 серия

MediaInfo

Формат : AVI
Формат/Информация : Audio Video Interleave
Размер файла : 658 Мбайт
Продолжительность : 44 м.
Общий поток : 2045 Кбит/сек
Библиотека кодирования : VirtualDub build 32661/release
Видео
Идентификатор : 0
Формат : MPEG-4 Visual
Параметр BVOP формата : Нет
Параметр QPel формата : Нет
Параметр GMC формата : Без точки перехода
Параметр матрицы формата : Default (H.263)
Идентификатор кодека : DX50
Идентификатор кодека/Подсказка : DivX 5
Продолжительность : 44 м.
Битрейт : 1843 Кбит/сек
Ширина : 704 пикселя
Высота : 528 пикселей
Соотношение сторон : 4:3
Частота кадров : 25,000 кадров/сек
Цветовое пространство : YUV
Субдискретизация насыщенности : 4:2:0
Битовая глубина : 8 бит
Тип развёртки : Прогрессивная
Метод сжатия : С потерями
Бит/(Пиксели*Кадры) : 0.198
Размер потока : 593 Мбайт (90%)
Библиотека кодирования : DivX 5.0.5 (UTC 2003-04-24)
Аудио
Идентификатор : 1
Формат : MPEG Audio
Версия формата : Version 1
Профиль формата : Layer 3
Режим : Joint stereo
Идентификатор кодека : 55
Идентификатор кодека/Подсказка : MP3
Продолжительность : 44 м.
Вид битрейта : Постоянный
Битрейт : 192 Кбит/сек
Каналы : 2 канала
Частота : 48,0 КГц
Метод сжатия : С потерями
Размер потока : 61,8 Мбайт (9%)
Выравнивание : Разделение по промежуткам
Продолжительность промежутка : 40 мс. (1,00 видеокадр)
Время предзагрузки промежутка : 500 мс.

Скриншоты

[teatrix.ru].t17526.torrent 
Торрент: Зарегистрирован [ 2016-03-17 00:53 ] · 286B6EA9EC8B81B594C6FD467B1DC710B388606F

Скачать .torrent

Скачать

13 KB

Статус: проверено
Скачан: 0 раз
Размер: 658 MB
terms.php



Быстрый ответ

Имя:

      
Для отправки сообщений необходимо включить JavaScript
Показать сообщения:    

Текущее время: 04-Дек 21:25

Часовой пояс: UTC + 3


Вы можете начинать темы
Вы можете отвечать на сообщения
Вы не можете редактировать свои сообщения
Вы не можете удалять свои сообщения
Вы не можете голосовать в опросах
Вы не можете прикреплять файлы к сообщениям
Вы можете скачивать файлы