Настоящие «Бесславные ублюдки» / The Real Inglorious Bastards (Мин Сук Ли / Min Sook Lee) [2012, документальный, SATRip]


Статистика раздачи [Обновить пиров]
Размер:  704 MB   |    Зарегистрирован:  8 месяцев 17 дней   |    Скачан:  0 раз

Полного источника не было: Никогда

 
   
 
 
 

[Цитировать]

Настоящие «Бесславные ублюдки» / The Real Inglorious Bastards
Год выпуска: 2012
Страна: Канада
Жанр: документальный
Продолжительность: 00:44:06
Перевод: Студийный (одноголосый закадровый)
Русские субтитры: нет
Режиссер: Мин Сук Ли / Min Sook Lee
Описание: Оказывается, фильм Квентина Тарантино «Бесславные ублюдки» был снят на основе реальных событий: группа американских евреев совершила дерзкую вылазку, чтобы отомстить оккупантам.
Сэмпл: http://multi-up.com/894853
Ссылка на предыдущие и альтернативные раздачи
качество: SATRip
формат: MP4
Видео: H.264, 2000 Кбит/сек, 720x400, 25fps
Аудио: Русский: AC3, 1 ch, 48,0 КГц, 128 Кбит/сек
Английский: AC3, 1 ch, 48,0 КГц, 128 Кбит/сек

MediaInfo

Complete name : The Real Inglorious Bastards.mp4
Format : MPEG-4
Format profile : Base Media / Version 2
Codec ID : mp42
File size : 704 MiB
Duration : 44mn 6s
Overall bit rate : 2 231 Kbps
Encoded date : UTC 2013-06-22 07:48:53
Tagged date : UTC 2013-06-22 08:28:27
Writing application : HandBrake 0.9.9 2013052900
Video
ID : 1
Format : AVC
Format/Info : Advanced Video Codec
Format profile : Main@L3.0
Format settings, CABAC : Yes
Format settings, ReFrames : 7 frames
Codec ID : avc1
Codec ID/Info : Advanced Video Coding
Duration : 44mn 6s
Bit rate mode : Variable
Bit rate : 2 000 Kbps
Width : 720 pixels
Height : 400 pixels
Display aspect ratio : 16:9
Frame rate mode : Variable
Frame rate : 25.000 fps
Minimum frame rate : 25.000 fps
Maximum frame rate : 59.445 fps
Color space : YUV
Chroma subsampling : 4:2:0
Bit depth : 8 bits
Scan type : Progressive
Bits/(Pixel*Frame) : 0.278
Stream size : 622 MiB (88%)
Writing library : x264 core 130 r2273 b3065e6
Encoding settings : cabac=1 / ref=7 / deblock=1:-1:-1 / analyse=0x1:0x111 / me=hex / subme=9 / psy=1 / psy_rd=1.00:0.00 / mixed_ref=1 / me_range=16 / chroma_me=1 / trellis=1 / 8x8dct=0 / cqm=0 / deadzone=21,11 / fast_pskip=1 / chroma_qp_offset=-2 / threads=6 / lookahead_threads=1 / sliced_threads=0 / nr=0 / decimate=1 / interlaced=0 / bluray_compat=0 / constrained_intra=0 / bframes=3 / b_pyramid=2 / b_adapt=1 / b_bias=0 / direct=1 / weightb=1 / open_gop=0 / weightp=2 / keyint=250 / keyint_min=25 / scenecut=40 / intra_refresh=0 / rc_lookahead=10 / rc=abr / mbtree=1 / bitrate=2000 / ratetol=1.0 / qcomp=0.60 / qpmin=0 / qpmax=69 / qpstep=4 / ip_ratio=1.40 / aq=1:1.00
Encoded date : UTC 2013-06-22 07:48:53
Tagged date : UTC 2013-06-22 08:28:27
Color primaries : BT.601 PAL
Transfer characteristics : BT.709
Matrix coefficients : BT.601
Audio #1
ID : 2
Format : AC-3
Format/Info : Audio Coding 3
Mode extension : CM (complete main)
Format settings, Endianness : Big
Codec ID : ac-3
Duration : 44mn 6s
Bit rate mode : Constant
Bit rate : 128 Kbps
Channel(s) : 1 channel
Channel positions : Front: C
Sampling rate : 48.0 KHz
Bit depth : 16 bits
Compression mode : Lossy
Delay relative to video : 63ms
Stream size : 40.4 MiB (6%)
Language : English
Encoded date : UTC 2013-06-22 07:48:53
Tagged date : UTC 2013-06-22 08:28:26
Audio #2
ID : 3
Format : AC-3
Format/Info : Audio Coding 3
Mode extension : CM (complete main)
Format settings, Endianness : Big
Codec ID : ac-3
Duration : 44mn 6s
Bit rate mode : Constant
Bit rate : 128 Kbps
Channel(s) : 1 channel
Channel positions : Front: C
Sampling rate : 48.0 KHz
Bit depth : 16 bits
Compression mode : Lossy
Delay relative to video : 63ms
Stream size : 40.4 MiB (6%)
Language : English
Encoded date : UTC 2013-06-22 07:48:53
Tagged date : UTC 2013-06-22 08:28:26

Скриншоты

[teatrix.ru].t17531.torrent 
Торрент: Зарегистрирован [ 2016-03-17 00:53 ] · 4C648CCAE4120C6494011546B37B758D360F194C

Скачать .torrent

Скачать

14 KB

Статус: проверено
Скачан: 0 раз
Размер: 704 MB
terms.php



Показать сообщения:    

Текущее время: 03-Дек 16:47

Часовой пояс: UTC + 3


Вы не можете начинать темы
Вы не можете отвечать на сообщения
Вы не можете редактировать свои сообщения
Вы не можете удалять свои сообщения
Вы не можете голосовать в опросах
Вы не можете прикреплять файлы к сообщениям
Вы можете скачивать файлы