(Classical) Einojuhani Rautavaara - Song of My Heart: Orchestral Songs (Gabriel Suovanen, Helsinki Philharmonic Orchestra - Leif Segerstam) - 2006, FLAC (image+.cue) lossless


 

[Цитировать]

Einojuhani Rautavaara – Song of My Heart: Orchestral Songs
Жанр: Classical
Страна-производитель диска: EU
Год издания диска: 2006
Издатель (лейбл): Ondine
Номер по каталогу: ODE 1085-2
Дата записи: 2006
Аудиокодек: FLAC
Тип рипа: image+.cue
Битрейт аудио: lossless
Продолжительность: 57:52
Источник: скачано с avaxhome
Наличие сканов в содержимом раздачи: да
Треклист:
Three Sonnets Of Shakespeare (1951/2005)
01. - 1. That Time Of Year [0:03:01.96]
02. - 2. When I Do Count The Clock [0:02:47.06]
03. - 3. Shall I Compare Thee [0:02:04.82]
Fünf Sonette An Orpheus (1955-6/1960)
04. - 1. Da Stieg Ein Baum [0:02:11.53]
05. - 2. Und Fast Ein Mädchen Wars [0:02:10.82]
06. - 3. Ein Gott Vermags [0:02:38.93]
07. - 4. O Ihr Zärtlichen [0:03:22.32]
08. - 5. Errichtet Keinen Denkstein [0:02:10.21]
Die Liebenden (1958-9/1964)
09. - 1. Liebes-Lied [0:03:36.85]
10. - 2. Der Schauende [0:06:43.56]
11. - 3. Die Liebende [0:04:43.33]
12. - 4. Der Tod Der Geliebten [0:03:33.61]
Guds Väg (1964/2003)
13. - 1. Guds Väg [0:02:04.25]
14. - 2. Barnet [0:01:51.69]
15. - 3. Pingst [0:00:55.58]
16. - 4. Dröm i katedralen [0:01:37.85]
Three Songs From The Opera Aleksis Kivi (1997)
17. - 1. Ikävyys [0:04:45.09]
18. - 2. Laulu oravasta [0:03:20.64]
19. - 3. Sydämeni laulu [0:04:11.68]
Исполнители:
Helsinki Philharmonic Orchestra – Leif Segerstam
Gabriel Suovanen – baritone

Лог создания рипа

Exact Audio Copy V1.0 beta 3 from 29. August 2011
EAC extraction logfile from 13. April 2013, 16:26
Gabriel Suovanen / Rautavaara: Songs of My Heart
Used drive : TSSTcorpCDDVDW SH-216AB Adapter: 1 ID: 0
Read mode : Secure
Utilize accurate stream : Yes
Defeat audio cache : Yes
Make use of C2 pointers : No
Read offset correction : 6
Overread into Lead-In and Lead-Out : No
Fill up missing offset samples with silence : Yes
Delete leading and trailing silent blocks : No
Null samples used in CRC calculations : Yes
Used interface : Native Win32 interface for Win NT & 2000
Used output format : User Defined Encoder
Selected bitrate : 768 kBit/s
Quality : High
Add ID3 tag : No
Command line compressor : C:\Program Files (x86)\Exact Audio Copy\FLAC\FLAC.EXE
Additional command line options : -6 -V -T "ARTIST=%artist%" -T "TITLE=%title%" -T "ALBUM=%albumtitle%" -T "DATE=%year%" -T "TRACKNUMBER=%tracknr%" -T "GENRE=%genre%" -T "COMMENT=%comment%" -T "BAND=%albuminterpret%" -T "ALBUMARTIST=%albuminterpret%" -T "COMPOSER=%composer%" %haslyrics%--tag-from-file=LYRICS="%lyricsfile%"%haslyrics% -T "DISCNUMBER=%cdnumber%" -T "TOTALDISCS=%totalcds%" -T "TOTALTRACKS=%numtracks%" %hascover%--picture="%coverfile%"%hascover% %source% -o %dest%
TOC of the extracted CD
Track | Start | Length | Start sector | End sector
---------------------------------------------------------
1 | 0:00.00 | 3:01.72 | 0 | 13646
2 | 3:01.72 | 2:47.05 | 13647 | 26176
3 | 5:49.02 | 2:04.62 | 26177 | 35538
4 | 7:53.64 | 2:11.40 | 35539 | 45403
5 | 10:05.29 | 2:10.62 | 45404 | 55215
6 | 12:16.16 | 2:38.70 | 55216 | 67135
7 | 14:55.11 | 3:22.24 | 67136 | 82309
8 | 18:17.35 | 2:10.16 | 82310 | 92075
9 | 20:27.51 | 3:36.64 | 92076 | 108339
10 | 24:04.40 | 6:43.42 | 108340 | 138606
11 | 30:48.07 | 4:43.25 | 138607 | 159856
12 | 35:31.32 | 3:33.46 | 159857 | 175877
13 | 39:05.03 | 2:04.19 | 175878 | 185196
14 | 41:09.22 | 1:51.52 | 185197 | 193573
15 | 43:00.74 | 0:55.44 | 193574 | 197742
16 | 43:56.43 | 1:37.64 | 197743 | 205081
17 | 45:34.32 | 4:45.07 | 205082 | 226463
18 | 50:19.39 | 3:20.48 | 226464 | 241511
19 | 53:40.12 | 4:11.51 | 241512 | 260387
Range status and errors
Selected range
Filename C:\Users\astarte\03. POST\rautavaara\Gabriel Suovanen - Rautavaara- Songs of My Heart.wav
Peak level 98.5 %
Extraction speed 7.4 X
Range quality 100.0 %
Copy CRC 5467B947
Copy OK
No errors occurred
AccurateRip summary
Track 1 accurately ripped (confidence 4) [91F4F1AB] (AR v1)
Track 2 accurately ripped (confidence 4) [91B149C2] (AR v1)
Track 3 accurately ripped (confidence 4) [F9F0133B] (AR v1)
Track 4 accurately ripped (confidence 4) [C9E5DDAA] (AR v1)
Track 5 accurately ripped (confidence 4) [A027D5C9] (AR v1)
Track 6 accurately ripped (confidence 4) [D2BECCF8] (AR v1)
Track 7 accurately ripped (confidence 4) [02C4A8BD] (AR v1)
Track 8 accurately ripped (confidence 4) [D0320386] (AR v1)
Track 9 accurately ripped (confidence 4) [571148A3] (AR v1)
Track 10 accurately ripped (confidence 4) [F033EE27] (AR v1)
Track 11 accurately ripped (confidence 4) [D363F6AE] (AR v1)
Track 12 accurately ripped (confidence 4) [29774F0F] (AR v1)
Track 13 accurately ripped (confidence 4) [9A0CA2C8] (AR v1)
Track 14 accurately ripped (confidence 4) [55926066] (AR v1)
Track 15 accurately ripped (confidence 4) [C34ED378] (AR v1)
Track 16 accurately ripped (confidence 4) [31F5306B] (AR v1)
Track 17 accurately ripped (confidence 4) [32AB587F] (AR v1)
Track 18 accurately ripped (confidence 4) [F2328B6A] (AR v1)
Track 19 accurately ripped (confidence 4) [5448825B] (AR v1)
All tracks accurately ripped
End of status report
==== Log checksum 7551FDE9B1824C737AB8D003F0BE3A39653442C8CC2A17CE94DCC332CC3C0121 ====

Лог проверки качества

AUDIOCHECKER v2.0 beta (build 457) - by Dester - opdester@freemail.hu
~~~~~~~~~~~~~~~~~~~~~~~~~~~~~~~~~~
-=== DO NOT EDIT THIS FILE! ===-
Path: ...\Новая папка
1 -=- Gabriel Suovanen - Rautavaara- Songs of My Heart.flac -=- CDDA (99%)
90206468



Показать сообщения:    

Текущее время: 05-Дек 07:29

Часовой пояс: UTC + 3


Вы не можете начинать темы
Вы не можете отвечать на сообщения
Вы не можете редактировать свои сообщения
Вы не можете удалять свои сообщения
Вы не можете голосовать в опросах
Вы не можете прикреплять файлы к сообщениям
Вы не можете скачивать файлы