Рождающие музыку (4 серии из 4) (Элла Тухарели) [2012, Документальный, SATRip]


Статистика раздачи [Обновить пиров]
Размер:  2.23 GB   |    Зарегистрирован:  8 месяцев 21 день   |    Скачан:  0 раз

Полного источника не было: Никогда

 
   
 
 
 

[Цитировать]

Рождающие музыку (4 серии из 4)
Год выпуска: 2012
Страна: Россия
Жанр: Документальный
Продолжительность: 4 х ~ 00:39:00
Перевод: Не требуется
Русские субтитры: нет
Режиссер: Элла Тухарели

Описание:
Гитара.
Несмотря на внешнюю скромность, гитара кажется едва ли не самым популярным инструментом: во всяком случае, она присутствует как в академической музыке, так и в бардовских, роковых, эстрадно-массовых жанрах. Такой она была с момента своего возникновения: звучала в народе и при дворе... Известно, что великий скрипач Никколо Паганини очень любил гитару, писал для нее музыку и был отличным гитаристом; а знаменитый скрипичный мастер Антонио Страдивари долгое время, помимо скрипок, делал гитары. Именно процесс изготовления инструмента поставлен во главу угла фильма - через него зритель узнает много нового и об истории гитары, и о тонкостях ее звучания, и об особых отношениях исполнителя и его инструмента.
В фильме принимает участие известный классический гитарист Юрий Нугманов, который - в поисках "своей", "идеальной гитары" - путешествует по миру и беседует с ведущими гитарными исполнителями (например, П. Ромеро) и опытными мастерами, из поколения в поколение передающими опыт изготовления гитар и готовыми рассказать о нем немало интересного.
Арфа.
В десятке стран арфа существовала как популярный фольклорный инструмент. Сегодня об этом отчасти напоминает кельтская арфа, на которой играют некоторые этно- и рок-исполнители. Однако в основном мы знаем арфу как инструмент академический и даже элитарный. С арфой сложно обращаться, она требует тщательного ухода, а стоит вдвое дороже многих других инструментов. Ее изготовлению официально нигде не обучают - знания могут передать только старые мастера. В данном фильме мы попадем в уникальные арфовые мастерские и познакомимся с теми самыми таинственными мастерами. А главное, ответим на вопрос - что привлекает в звучании арфы, кто и почему выбирает для себя такой необычный, редкий инструмент?
В фильме принимают участие: арфистка Мария Крушевская, преподаватель в Российской Академии музыки им. Гнесиных Мильда Агазарян, исполнительница на кельтской арфе и лидер фолк-группы "Мельница" Хелависа, а также арфовые мастера и историки данного инструмента.
Скрипка.
Скрипка - один из самых таинственных музыкальных инструментов. Из-за конструктивных особенностей красота ее звучания полностью зависит от качества материалов и тщательности изготовления - недаром так известны в мире и овеяны особым пиететом имена скрипичных мастеров Страдивари, Гварнери, Амати.
Больше всего скрипичных секретов связаны с именем маэстро Страдивари. Его скрипки до сих пор считаются лучшими в мире. Чаще всего тайну Страдивари объясняют удивительными свойствами лака, которыми мастер покрывал свои инструменты. Состав вещества неизвестен до сих пор. Но в нем ли дело? Почему же инструменты, изготовленные полуграмотным юношей в XVII веке, звучат лучше скрипок, созданных с использованием самых последних технологий? Как создать идеальную скрипку?
На эту тему размышляют скрипач с мировым именем Вадим Репин, а также известные исполнители, историки и современные скрипичные мастера.
Рояль.
В переводе на русский язык "рояль" значит "королевский". Само название утвердило за роялем славу короля инструментов - он не только может выступать без сопровождения, но и сам способен звучать как оркестр. Его звук ни с чем нельзя спутать. Струны - как у скрипки или виолончели, клавиатура - как органа, а звучит рояль ярче и богаче всех этих инструментов. Этот фильм о том, в каких мастерских и как рождается король всех инструментов, когда он появился на свет, кто были его "музыкальными предками", чем отличается звучание именитых фирменных инструментов и как выбирают себе инструменты известные исполнители.
В фильме принимают участие знаменитый пианист Денис Мацуев, пианистка, историк фортепиано Вивиана Софроницкая, а также известные музыкальные мастера.

Доп. информация: Благодарность: за релиз: maslovagal
за постер: Verba96
Сэмпл: http://multi-up.com/896754
качество: SATRip
формат: AVI
Видео: 704x400 (1.76:1)25 fpsDivX Codec 5.05*1838 kbps avg0.26 bit/pixel
Аудио: 48 kHzMPEG Layer 3*2 ch*192.00 kbps avg

Список выпусков/серий

1. Гитара
2. Арфа
3. Скрипка.
4. Рояль

MediaInfo

Формат : AVI
Формат/Информация : Audio Video Interleave
Размер файла : 567 Мбайт
Продолжительность : 38 м.
Общий поток : 2040 Кбит/сек
Программа кодирования : VirtualDubMod 1.5.10.2 (build 2540/release)
Библиотека кодирования : VirtualDubMod build 2540/release
Видео
Идентификатор : 0
Формат : MPEG-4 Visual
Параметр BVOP формата : Нет
Параметр QPel формата : Нет
Параметр GMC формата : Без точки перехода
Параметр матрицы формата : Default (H.263)
Идентификатор кодека : DX50
Идентификатор кодека/Подсказка : DivX 5
Продолжительность : 38 м.
Битрейт : 1839 Кбит/сек
Ширина : 704 пикселя
Высота : 400 пикселей
Соотношение сторон : 16:9
Частота кадров : 25,000 кадров/сек
Цветовое пространство : YUV
Субдискретизация насыщенности : 4:2:0
Битовая глубина : 8 бит
Тип развёртки : Прогрессивная
Метод сжатия : С потерями
Бит/(Пиксели*Кадры) : 0.261
Размер потока : 511 Мбайт (90%)
Библиотека кодирования : DivX 5.0.5 (UTC 2003-04-24)
Аудио
Идентификатор : 1
Формат : MPEG Audio
Версия формата : Version 1
Профиль формата : Layer 3
Режим : Joint stereo
Идентификатор кодека : 55
Идентификатор кодека/Подсказка : MP3
Продолжительность : 38 м.
Вид битрейта : Постоянный
Битрейт : 192 Кбит/сек
Каналы : 2 канала
Частота : 48,0 КГц
Метод сжатия : С потерями
Задержка видео : 20 мс.
Размер потока : 53,4 Мбайт (9%)
Выравнивание : Разделение по промежуткам
Продолжительность промежутка : 40 мс. (1,00 видеокадр)
Время предзагрузки промежутка : 500 мс.

Скриншоты

Арфа.

Гитара.

Рояль.

Скрипка.
[teatrix.ru].t17564.torrent 
Торрент: Зарегистрирован [ 2016-03-17 00:53 ] · 0213F952DB2AA23A2C308B35D2117A768FD7BD31

Скачать .torrent

Скачать

12 KB

Статус: проверено
Скачан: 0 раз
Размер: 2.23 GB
terms.php



Быстрый ответ

Имя:

      
Для отправки сообщений необходимо включить JavaScript
Показать сообщения:    

Текущее время: 07-Дек 13:36

Часовой пояс: UTC + 3


Вы можете начинать темы
Вы можете отвечать на сообщения
Вы не можете редактировать свои сообщения
Вы не можете удалять свои сообщения
Вы не можете голосовать в опросах
Вы не можете прикреплять файлы к сообщениям
Вы можете скачивать файлы