(Classical/Vocal) Franz Schubert - Winterreise / Шуберт - Зимний путь (Hans Jorg Mammel, Arthur Schoonderwoerd) Alpha 101 - 2006, FLAC (image+.cue) lossless


 

[Цитировать]

Franz Schubert - Winterreise / Шуберт - Зимний путь
Hans Jörg Mammel, Arthur Schoonderwoerd

Жанр: Classical/Vocal
Страна-производитель диска: EU
Год издания диска: 2006
Издатель (лейбл): Alpha
Номер по каталогу: 101
Дата записи: 2005
Аудиокодек: FLAC
Тип рипа: image+.cue
Битрейт аудио: lossless
Продолжительность: 68'44
Источник: собственный рип
Наличие сканов в содержимом раздачи: да
Треклист:
Franz Schubert (1797-1828)
Winterreise
01. Gute Nacht [0:05:35.21]
02. Die Wetterfahne [0:01:33.28]
03. Gefrorne Tränen [0:02:17.35]
04. Erstarrung [0:02:36.51]
05. Der Lindenbaum [0:04:34.45]
06. Wasserflut [0:04:25.32]
07. Auf dem Flusse [0:03:10.71]
08. Rückblick [0:02:10.58]
09. Irrlicht [0:02:41.34]
10. Rast [0:03:21.03]
11. Frühlingstraum [0:03:35.19]
12. Einsamkeit [0:02:44.13]
13. Die Post [0:02:23.30]
14. Der greise Kopf [0:02:36.29]
15. Die Krähe [0:01:42.41]
16. Letzte Hoffnung [0:02:01.65]
17. Im Dorfe [0:03:20.14]
18. Der stürmische Morgen [0:00:52.01]
19. Täuschung [0:01:18.63]
20. Der Wegweiser [0:04:00.06]
21. Das Wirtshaus [0:04:13.12]
22. Mut [0:01:23.37]
23. Die Nebensonnen [0:02:48.62]
24. Der Leiermann [0:03:14.69]
Исполнители:
Hans Jörg Mammel, tenor
Arthur Schoonderwoerd, pianoforte Johann Fritz (ca 1810)

Лог создания рипа

Exact Audio Copy V1.0 beta 3 from 29. August 2011
Отчёт EAC об извлечении, выполненном 26. августа 2013, 18:32
Hans Jörg Mammel, Arthur Schoonderwoerd / Franz Schubert - Winterreise
Дисковод: HL-DT-STDVDRAM GT33N Adapter: 1 ID: 0
Режим чтения : Достоверность
Использование точного потока : Да
Отключение кэша аудио : Да
Использование указателей C2 : Нет
Коррекция смещения при чтении : 103
Способность читать области Lead-in и Lead-out : Нет
Заполнение пропущенных сэмплов тишиной : Да
Удаление блоков с тишиной в начале и конце : Нет
При вычислениях CRC использовались нулевые сэмплы : Да
Интерфейс : Встроенный Win32-интерфейс для Win NT/2000
Выходной формат : Пользовательский кодировщик
Выбранный битрейт : 1024 kBit/s
Качество : Высокий
Добавление ID3-тега : Да
Утилита сжатия : C:\Program Files (x86)\Exact Audio Copy\Flac\flac.exe
Дополнительные параметры : -8 -V -T "ALBUMARTIST=%albumartist%" -T "ALBUM=%albumtitle%" -T "DATE=%year%" -T "TRACKTOTAL=%numtracks%" -T "GENRE=%genre%" -T "COMMENT=%comment%" -T "PERFORMER=%albuminterpret%" -T "COMPOSER=%composer%" %source% -o %dest%
TOC извлечённого CD
Трек | Старт | Длительность | Начальный сектор | Конечный сектор
---------------------------------------------------------------------
1 | 0:00.00 | 5:35.21 | 0 | 25145
2 | 5:35.21 | 1:33.28 | 25146 | 32148
3 | 7:08.49 | 2:17.35 | 32149 | 42458
4 | 9:26.09 | 2:36.51 | 42459 | 54209
5 | 12:02.60 | 4:34.45 | 54210 | 74804
6 | 16:37.30 | 4:25.32 | 74805 | 94711
7 | 21:02.62 | 3:10.71 | 94712 | 109032
8 | 24:13.58 | 2:10.58 | 109033 | 118840
9 | 26:24.41 | 2:41.34 | 118841 | 130949
10 | 29:06.00 | 3:21.03 | 130950 | 146027
11 | 32:27.03 | 3:35.19 | 146028 | 162171
12 | 36:02.22 | 2:44.13 | 162172 | 174484
13 | 38:46.35 | 2:23.30 | 174485 | 185239
14 | 41:09.65 | 2:36.29 | 185240 | 196968
15 | 43:46.19 | 1:42.41 | 196969 | 204659
16 | 45:28.60 | 2:01.65 | 204660 | 213799
17 | 47:30.50 | 3:20.14 | 213800 | 228813
18 | 50:50.64 | 0:52.01 | 228814 | 232714
19 | 51:42.65 | 1:18.63 | 232715 | 238627
20 | 53:01.53 | 4:00.06 | 238628 | 256633
21 | 57:01.59 | 4:13.12 | 256634 | 275620
22 | 61:14.71 | 1:23.37 | 275621 | 281882
23 | 62:38.33 | 2:48.62 | 281883 | 294544
24 | 65:27.20 | 3:14.69 | 294545 | 309163
Характеристики диапазона извлечения и сообщения об ошибках
Выбранный диапазон
Имя файла O:\!Rips\Franz Schubert - Winterreise (Hans Jorg Mammel, Arthur Schoonderwoerd).wav
Пиковый уровень 99.2 %
Скорость извлечения 2.2 X
Качество диапазона 100.0 %
CRC теста B3A38871
CRC копии B3A38871
Копирование... OK
Ошибок не произошло
AccurateRip: сводка
Трек 1 : извлечено точно (доверие 2) [3829F627] (AR v2)
Трек 2 : извлечено точно (доверие 2) [46FB59FC] (AR v2)
Трек 3 : извлечено точно (доверие 2) [47A3150E] (AR v2)
Трек 4 : извлечено точно (доверие 2) [FB0A51F6] (AR v2)
Трек 5 : извлечено точно (доверие 2) [F9F7F907] (AR v2)
Трек 6 : извлечено точно (доверие 2) [986F50A4] (AR v2)
Трек 7 : извлечено точно (доверие 2) [5CE06F97] (AR v2)
Трек 8 : извлечено точно (доверие 2) [1147573F] (AR v2)
Трек 9 : извлечено точно (доверие 2) [832F9D4D] (AR v2)
Трек 10 : извлечено точно (доверие 2) [AE49F592] (AR v2)
Трек 11 : извлечено точно (доверие 2) [CC8F5FCA] (AR v2)
Трек 12 : извлечено точно (доверие 2) [FBC17D03] (AR v2)
Трек 13 : извлечено точно (доверие 2) [E8F2064E] (AR v2)
Трек 14 : извлечено точно (доверие 2) [C12F2567] (AR v2)
Трек 15 : извлечено точно (доверие 2) [26DC5F17] (AR v2)
Трек 16 : извлечено точно (доверие 2) [16928337] (AR v2)
Трек 17 : извлечено точно (доверие 2) [622E79B6] (AR v2)
Трек 18 : извлечено точно (доверие 2) [63741932] (AR v2)
Трек 19 : извлечено точно (доверие 2) [B6DE84A6] (AR v2)
Трек 20 : извлечено точно (доверие 2) [15E78DA2] (AR v2)
Трек 21 : извлечено точно (доверие 2) [76F5BE66] (AR v2)
Трек 22 : извлечено точно (доверие 2) [92E2CBE6] (AR v2)
Трек 23 : извлечено точно (доверие 2) [12203E31] (AR v2)
Трек 24 : извлечено точно (доверие 2) [D4D02EE2] (AR v2)
Все треки извлечены точно
Конец отчёта
==== Контрольная сумма отчёта 6E536444855FEA1CB8978BBE3E201D987D604A2B782C5411F624EED7F51AAD3E ====

Содержание индексной карты (.CUE)

REM GENRE Classical
REM DATE 2006
REM DISCID 70101A18
REM COMMENT "ExactAudioCopy v1.0b3"
PERFORMER "Hans Jorg Mammel, Arthur Schoonderwoerd"
TITLE "Franz Schubert - Winterreise"
FILE "Franz Schubert - Winterreise (Hans Jorg Mammel, Arthur Schoonderwoerd).flac" WAVE
TRACK 01 AUDIO
TITLE "Gute Nacht"
PERFORMER "Hans Jorg Mammel, Arthur Schoonderwoerd"
INDEX 01 00:00:00
TRACK 02 AUDIO
TITLE "Die Wetterfahne"
PERFORMER "Hans Jorg Mammel, Arthur Schoonderwoerd"
INDEX 01 05:35:21
TRACK 03 AUDIO
TITLE "Gefrorne Tranen"
PERFORMER "Hans Jorg Mammel, Arthur Schoonderwoerd"
INDEX 01 07:08:49
TRACK 04 AUDIO
TITLE "Erstarrung"
PERFORMER "Hans Jorg Mammel, Arthur Schoonderwoerd"
INDEX 01 09:26:09
TRACK 05 AUDIO
TITLE "Der Lindenbaum"
PERFORMER "Hans Jorg Mammel, Arthur Schoonderwoerd"
INDEX 01 12:02:60
TRACK 06 AUDIO
TITLE "Wasserflut"
PERFORMER "Hans Jorg Mammel, Arthur Schoonderwoerd"
INDEX 01 16:37:30
TRACK 07 AUDIO
TITLE "Auf dem Flusse"
PERFORMER "Hans Jorg Mammel, Arthur Schoonderwoerd"
INDEX 01 21:02:62
TRACK 08 AUDIO
TITLE "Ruckblick"
PERFORMER "Hans Jorg Mammel, Arthur Schoonderwoerd"
INDEX 01 24:13:58
TRACK 09 AUDIO
TITLE "Irrlicht"
PERFORMER "Hans Jorg Mammel, Arthur Schoonderwoerd"
INDEX 01 26:24:41
TRACK 10 AUDIO
TITLE "Rast"
PERFORMER "Hans Jorg Mammel, Arthur Schoonderwoerd"
INDEX 01 29:06:00
TRACK 11 AUDIO
TITLE "Fruhlingstraum"
PERFORMER "Hans Jorg Mammel, Arthur Schoonderwoerd"
INDEX 01 32:27:03
TRACK 12 AUDIO
TITLE "Einsamkeit"
PERFORMER "Hans Jorg Mammel, Arthur Schoonderwoerd"
INDEX 01 36:02:22
TRACK 13 AUDIO
TITLE "Die Post"
PERFORMER "Hans Jorg Mammel, Arthur Schoonderwoerd"
INDEX 01 38:46:35
TRACK 14 AUDIO
TITLE "Der greise Kopf"
PERFORMER "Hans Jorg Mammel, Arthur Schoonderwoerd"
INDEX 01 41:09:65
TRACK 15 AUDIO
TITLE "Die Krahe"
PERFORMER "Hans Jorg Mammel, Arthur Schoonderwoerd"
INDEX 01 43:46:19
TRACK 16 AUDIO
TITLE "Letzte Hoffnung"
PERFORMER "Hans Jorg Mammel, Arthur Schoonderwoerd"
INDEX 01 45:28:60
TRACK 17 AUDIO
TITLE "Im Dorfe"
PERFORMER "Hans Jorg Mammel, Arthur Schoonderwoerd"
INDEX 01 47:30:50
TRACK 18 AUDIO
TITLE "Der sturmische Morgen"
PERFORMER "Hans Jorg Mammel, Arthur Schoonderwoerd"
INDEX 01 50:50:64
TRACK 19 AUDIO
TITLE "Tauschung"
PERFORMER "Hans Jorg Mammel, Arthur Schoonderwoerd"
INDEX 01 51:42:65
TRACK 20 AUDIO
TITLE "Der Wegweiser"
PERFORMER "Hans Jorg Mammel, Arthur Schoonderwoerd"
INDEX 01 53:01:53
TRACK 21 AUDIO
TITLE "Das Wirtshaus"
PERFORMER "Hans Jorg Mammel, Arthur Schoonderwoerd"
INDEX 01 57:01:59
TRACK 22 AUDIO
TITLE "Mut"
PERFORMER "Hans Jorg Mammel, Arthur Schoonderwoerd"
INDEX 01 61:14:71
TRACK 23 AUDIO
TITLE "Die Nebensonnen"
PERFORMER "Hans Jorg Mammel, Arthur Schoonderwoerd"
INDEX 01 62:38:33
TRACK 24 AUDIO
TITLE "Der Leiermann"
PERFORMER "Hans Jorg Mammel, Arthur Schoonderwoerd"
INDEX 01 65:27:20



Показать сообщения:    

Текущее время: 10-Дек 19:33

Часовой пояс: UTC + 3


Вы не можете начинать темы
Вы не можете отвечать на сообщения
Вы не можете редактировать свои сообщения
Вы не можете удалять свои сообщения
Вы не можете голосовать в опросах
Вы не можете прикреплять файлы к сообщениям
Вы не можете скачивать файлы