Певцы на час (31.08.2013) (Георгий Ананов) [2013, Документальный, SATRip]


Статистика раздачи [Обновить пиров]
Размер:  670 MB   |    Зарегистрирован:  8 месяцев 17 дней   |    Скачан:  0 раз

Полного источника не было: Никогда

Личеров:  3  [  0 KB/s  ]   Подробная статистика пиров
 
   
 
 
 

[Цитировать]

Певцы на час (31.08.2013)- Год выпуска: 2013
Страна: Россия
Выпущено: ОАО "Первый канал"
Жанр: Документальный
Продолжительность: 00:51:50
Перевод: Не требуется
Русские субтитры: нет-Режиссер: Георгий Ананов-Описание: В 90-е годы звезды в России зажигались мгновенно. Одна песня - и ты на вершине хит-парадов. Эту музыку слушают до сих пор – только теперь уже под грифом "ретро".
А вот имена певцов вспоминаются с трудом. Где сейчас эти артисты? Чем занимаются? И как пережили свою славу?-Доп. информация: В фильме принимают участие: Натали - певица, Инна Стил - певица, подруга Михея, Нина Крутикова - мама Михея,
Влад Валов - музыкант, Александр Шевченко – композитор, певец, Алсу - певица,Саша Зверева - певица, экс-солистка группы "Демо", Дмитрий Алмазов - муж Сашы Зверевой, Сергей Рогожин - певец, актер, Светлана Рогожина - жена Сергея Рогожина, Александр Морозов - композитор-Сэмпл: Певцы на час-качество: SATRip
формат: AVI
Видео: DivX, 720x400, 25 fps, 1600 kbit/s
Аудио: MPEG Layer 3, 48000 Hz, 192 kbit/s, stereo

MediaInfo

Общее
Формат : AVI
Формат/Информация : Audio Video Interleave
Размер файла : 670 Мбайт
Продолжительность : 52 м.
Общий поток : 1802 Кбит/сек
Программа кодирования : VirtualDubMod 1.5.10.3 | www.virtualdub-fr.org || (build 2550/release)
Библиотека кодирования : VirtualDubMod build 2550/release
Видео
Идентификатор : 0
Формат : MPEG-4 Visual
Профиль формата : Advanced Simple@L5
Параметр BVOP формата : 2
Параметр QPel формата : Нет
Параметр GMC формата : Без точки перехода
Параметр матрицы формата : Default (H.263)
Идентификатор кодека : XVID
Идентификатор кодека/Подсказка : XviD
Продолжительность : 52 м.
Битрейт : 1600 Кбит/сек
Ширина : 720 пикселей
Высота : 400 пикселей
Соотношение сторон : 16:9
Частота кадров : 25,000 кадров/сек
Цветовое пространство : YUV
Субдискретизация насыщенности : 4:2:0
Битовая глубина : 8 бит
Тип развёртки : Прогрессивная
Метод сжатия : С потерями
Бит/(Пиксели*Кадры) : 0.222
Размер потока : 595 Мбайт (89%)
Библиотека кодирования : XviD 1.2.1 (UTC 2008-12-04)
Аудио
Идентификатор : 1
Формат : MPEG Audio
Версия формата : Version 1
Профиль формата : Layer 3
Идентификатор кодека : 55
Идентификатор кодека/Подсказка : MP3
Продолжительность : 52 м.
Вид битрейта : Постоянный
Битрейт : 192 Кбит/сек
Каналы : 2 канала
Частота : 48,0 КГц
Метод сжатия : С потерями
Размер потока : 71,4 Мбайт (11%)
Выравнивание : Соединение по промежуткам
Продолжительность промежутка : 40 мс. (1,00 видеокадр)
Время предзагрузки промежутка : 504 мс.
Библиотека кодирования : LAME3.99r
Настройки программы : -m s -V 4 -q 0 -lowpass 18.6 -b 192

Скриншоты

[teatrix.ru].t17588.torrent 
Торрент: Зарегистрирован [ 2016-03-17 00:52 ] · 29884403F580F16A3DF0C8E67B81396EB476DF1A

Скачать .torrent

Скачать

14 KB

Статус: проверено
Скачан: 0 раз
Размер: 670 MB
terms.php



Быстрый ответ

Имя:

      
Для отправки сообщений необходимо включить JavaScript
Показать сообщения:    

Текущее время: 03-Дек 12:39

Часовой пояс: UTC + 3


Вы можете начинать темы
Вы можете отвечать на сообщения
Вы не можете редактировать свои сообщения
Вы не можете удалять свои сообщения
Вы не можете голосовать в опросах
Вы не можете прикреплять файлы к сообщениям
Вы можете скачивать файлы