(Classica) Berlioz, Garcia, Gounod, Meyerbeer, Rossini, Viardot-Garcia - Pauline Viardot and Friends / Полина Виардо и Друзья ( Chernov, Watkin, Stade, Ardant, Antonacci), 2CD - 2007, FLAC (image+.cue) lossless


 

[Цитировать]

Pauline Viardot and Friends / Полина Виардо и Друзья / 2CD
Жанр: Classica
Страна-производитель диска: England
Год издания диска: 2007
Издатель (лейбл): Opera Rara
Номер по каталогу: ORR240
Аудиокодек: FLAC
Тип рипа: image+.cue
Битрейт аудио: lossless
Продолжительность: 31:00.02, 42:41.06
Источник: собственный рип
Наличие сканов в содержимом раздачи: да
Исполнители:
Chernov Vladimir, Watkin David, Stade Frederica von, Ardant Fanny narrator, Antonacci Anna Caterina
Композиторы:
Berlioz Hector, Garcia Manuel, Gounod Charles-Francois, Meyerbeer Giacomo, Rossini Gioachino, Viardot-Garcia Pauline
Полина Мишель Фердинанд Гарсиа-Виардо

ТреклистDISC 1

1. "Life of Pauline Viardot"
Ardant, Fanny - narrator
2. "Zwei Rosen" by Pauline Viardot-Garcia
Performer: Vladimir Chernov (Baritone), David Harper (Piano)
Period: Romantic
Written: France
3. "Life of Pauline Viardot"
Ardant, Fanny - narrator
4. "Celos" by Manuel Garcia
Performer: Anna Caterina Antonacci (Soprano), David Harper (Piano)
Period: Classical
Written: by 1830
Notes: Arranger: Pauline Viardot-Garcia.
5. "Life of Pauline Viardot"
Ardant, Fanny - narrator
6. "Les soirées musicales: no 9, La regata veneziana" by Gioachino Rossini
Performer: Frederica Von Stade (Mezzo Soprano), Anna Caterina Antonacci (Soprano), David Harper (Piano)
Period: Romantic
Written: circa 1830-1835; Italy
7. "Life of Pauline Viardot"
Ardant, Fanny - narrator
8. "L'absence" by Pauline Viardot-Garcia
Performer: Frederica Von Stade (Mezzo Soprano), David Harper (Piano)
Period: Romantic
Written: by 1844; France
9. "Life of Pauline Viardot"
Ardant, Fanny - narrator
10. "Berceuse after Chopin's Mazurka in C major, Op 33 no 3" by Pauline Viardot-Garcia
Performer: David Harper (Piano), Frederica Von Stade (Mezzo soprano)
Period: Romantic
Written: by 1888; Paris, France
11. "Life of Pauline Viardot"
Ardant, Fanny - narrator
12. "La chêne et la roseau" by Pauline Viardot-Garcia
Performer: Anna Caterina Antonacci (Soprano), David Harper (Piano)
Period: Romantic
Written: by 1843; France
13. "Life of Pauline Viardot"
Ardant, Fanny - narrator
14. "Utës" by Pauline Viardot-Garcia
Performer: Vladimir Chernov (Baritone), David Harper (Piano)
Period: Romantic
Written: by 1868; France
15. "Die sterne" by Pauline Viardot-Garcia
Performer: David Harper (Piano), Frederica Von Stade (Mezzo soprano), David Watkin (Cello)
Period: Romantic
16. "Life of Pauline Viardot"
Ardant, Fanny - narrator
17. "Scène d'Hermione" by Pauline Viardot-Garcia
Performer: Anna Caterina Antonacci (Soprano), David Harper (Piano)
Period: Romantic
Written: by 1887; France

DISC 2

1. "Life of Pauline Viardot"
Ardant, Fanny - narrator
2. "Sinitsa" by Pauline Viardot-Garcia
Performer: Vladimir Chernov (Baritone), David Harper (Piano)
Period: Romantic
Written: by 1864; France
3. "Life of Pauline Viardot"
Ardant, Fanny - narrator
4. "Indécision" by Pauline Viardot-Garcia
Performer: David Harper (Piano), Frederica Von Stade (Mezzo soprano)
Period: Romantic
Written: by 1878; France
5. "Life of Pauline Viardot"
Ardant, Fanny - narrator
6. "Chanson de printemps" by Charles Gounod
Performer: Vladimir Chernov (Baritone), David Harper (Piano)
Period: Romantic
Written: 1860; France
7. "Life of Pauline Viardot"
Ardant, Fanny - narrator
8. "Délire" by Giacomo Meyerbeer
Performer: Anna Caterina Antonacci (Soprano), David Harper (Piano)
Period: Romantic
Written: 1840
9. "Berceuse for Piano in D flat major, B 154/Op. 57" by Frédéric Chopin
Performer: Frederica Von Stade (Mezzo Soprano), David Harper (Piano)
Period: Romantic
Written: 1844; Paris, France
10. "Life of Pauline Viardot"
Ardant, Fanny - narrator
11. "Allein" by Pauline Viardot-Garcia
Performer: Anna Caterina Antonacci (Soprano), David Harper (Piano)
Period: Romantic
Written: by 1871; France
12. "Life of Pauline Viardot"
Ardant, Fanny - narrator
13. "La captive, Op. 12" by Hector Berlioz
Performer: David Harper (Piano), Frederica Von Stade (Mezzo soprano), David Watkin (Cello)
Period: Romantic
Written: 1832; France
14. "En mer" by Pauline Viardot-Garcia
Performer: Vladimir Chernov (Baritone), David Harper (Piano)
Period: Romantic
Written: by 1849; France
15. "Life of Pauline Viardot"
Ardant, Fanny - narrator
16. "Buria" by Pauline Viardot-Garcia
Performer: Vladimir Chernov (Baritone), David Harper (Piano)
Period: Romantic
Written: by 1865; France
17. "Cendrillon: C'est moi" by Pauline Viardot-Garcia
Performer: Frederica Von Stade (Mezzo Soprano), Vladimir Chernov (Baritone), David Harper (Piano)
Period: Romantic
Written: 1904; France
18. "Life of Pauline Viardot"
Ardant, Fanny - narrator
19. "Ici-bas tous les lilas meurent" by Pauline Viardot-Garcia
Performer: Anna Caterina Antonacci (Soprano), David Harper (Piano)
Period: Romantic
Written: by 1884; France
20. "Life of Pauline Viardot"
Ardant, Fanny - narrator
21. "Zaklinanie" by Pauline Viardot-Garcia
Performer: Vladimir Chernov (Baritone), David Harper (Piano)
Period: Romantic
Written: by 1864; France
22. "Life of Pauline Viardot"
Ardant, Fanny - narrator
23. "Havanaise" by Pauline Viardot-Garcia
Performer: Anna Caterina Antonacci (Soprano), Vladimir Chernov (Baritone), David Harper (Piano),
Frederica Von Stade (Mezzo soprano)
Period: Romantic
Written: France

Скриншоты


 
 
 

Лог создания рипа

DISC 1
Exact Audio Copy V1.0 beta 3 from 29. August 2011
Отчёт EAC об извлечении, выполненном 1. сентября 2013, 16:41
Wigmore Hall / Pauline Viardot and Friends 1
Дисковод: HL-DT-STDVDRAM GH60N Adapter: 2 ID: 1
Режим чтения : Достоверность
Использование точного потока : Да
Отключение кэша аудио : Да
Использование указателей C2 : Нет
Коррекция смещения при чтении : 667
Способность читать области Lead-in и Lead-out : Нет
Заполнение пропущенных сэмплов тишиной : Да
Удаление блоков с тишиной в начале и конце : Нет
При вычислениях CRC использовались нулевые сэмплы : Да
Интерфейс : Встроенный Win32-интерфейс для Win NT/2000
Выходной формат : Пользовательский кодировщик
Выбранный битрейт : 896 kBit/s
Качество : Высокий
Добавление ID3-тега : Нет
Утилита сжатия : C:\Program Files\Exact Audio Copy\FLAC\FLAC.EXE
Дополнительные параметры : -6 -V -T "ARTIST=%artist%" -T "TITLE=%title%" -T "ALBUM=%albumtitle%" -T "DATE=%year%" -T "TRACKNUMBER=%tracknr%" -T "GENRE=%genre%" -T "COMMENT=%comment%" -T "BAND=%albuminterpret%" -T "ALBUMARTIST=%albuminterpret%" -T "COMPOSER=%composer%" %haslyrics%--tag-from-file=LYRICS="%lyricsfile%"%haslyrics% -T "DISCNUMBER=%cdnumber%" -T "TOTALDISCS=%totalcds%" -T "TOTALTRACKS=%numtracks%" %hascover%--picture="%coverfile%"%hascover% %source% -o %dest%
TOC извлечённого CD
Трек | Старт | Длительность | Начальный сектор | Конечный сектор
---------------------------------------------------------------------
1 | 0:00.00 | 1:42.34 | 0 | 7683
2 | 1:42.34 | 1:16.56 | 7684 | 13439
3 | 2:59.15 | 0:15.27 | 13440 | 14591
4 | 3:14.42 | 2:47.58 | 14592 | 27174
5 | 6:02.25 | 0:32.68 | 27175 | 29642
6 | 6:35.18 | 3:53.69 | 29643 | 47186
7 | 10:29.12 | 0:40.08 | 47187 | 50194
8 | 11:09.20 | 1:55.18 | 50195 | 58837
9 | 13:04.38 | 0:06.71 | 58838 | 59358
10 | 13:11.34 | 2:51.67 | 59359 | 72250
11 | 16:03.26 | 0:26.40 | 72251 | 74240
12 | 16:29.66 | 4:53.04 | 74241 | 96219
13 | 21:22.70 | 1:54.65 | 96220 | 104834
14 | 23:17.60 | 3:31.03 | 104835 | 120662
15 | 26:48.63 | 4:05.27 | 120663 | 139064
16 | 30:54.15 | 0:05.62 | 139065 | 139501
17 | 31:00.02 | 6:54.01 | 139502 | 170552
Характеристики диапазона извлечения и сообщения об ошибках
Выбранный диапазон
Имя файла C:\Documents and Settings\Алексей\Рабочий стол\Pauline Viardot and Friends 1\Wigmore Hall - Pauline Viardot and Friends 1.wav
Пиковый уровень 79.4 %
Скорость извлечения 25.1 X
Качество диапазона 99.9 %
CRC теста 0BDF4AF1
CRC копии 0BDF4AF1
Копирование... OK
Ошибок не произошло
Конец отчёта
DISC 2
Exact Audio Copy V1.0 beta 3 from 29. August 2011
Отчёт EAC об извлечении, выполненном 1. сентября 2013, 20:59
Wigmore Hall / Pauline Viardot and Friends 2
Дисковод: HL-DT-STDVDRAM GH60N Adapter: 2 ID: 1
Режим чтения : Достоверность
Использование точного потока : Да
Отключение кэша аудио : Да
Использование указателей C2 : Нет
Коррекция смещения при чтении : 667
Способность читать области Lead-in и Lead-out : Нет
Заполнение пропущенных сэмплов тишиной : Да
Удаление блоков с тишиной в начале и конце : Нет
При вычислениях CRC использовались нулевые сэмплы : Да
Интерфейс : Встроенный Win32-интерфейс для Win NT/2000
Выходной формат : Пользовательский кодировщик
Выбранный битрейт : 896 kBit/s
Качество : Высокий
Добавление ID3-тега : Нет
Утилита сжатия : C:\Program Files\Exact Audio Copy\FLAC\FLAC.EXE
Дополнительные параметры : -6 -V -T "ARTIST=%artist%" -T "TITLE=%title%" -T "ALBUM=%albumtitle%" -T "DATE=%year%" -T "TRACKNUMBER=%tracknr%" -T "GENRE=%genre%" -T "COMMENT=%comment%" -T "BAND=%albuminterpret%" -T "ALBUMARTIST=%albuminterpret%" -T "COMPOSER=%composer%" %haslyrics%--tag-from-file=LYRICS="%lyricsfile%"%haslyrics% -T "DISCNUMBER=%cdnumber%" -T "TOTALDISCS=%totalcds%" -T "TOTALTRACKS=%numtracks%" %hascover%--picture="%coverfile%"%hascover% %source% -o %dest%
TOC извлечённого CD
Трек | Старт | Длительность | Начальный сектор | Конечный сектор
---------------------------------------------------------------------
1 | 0:00.00 | 0:29.01 | 0 | 2175
2 | 0:29.01 | 2:11.34 | 2176 | 12034
3 | 2:40.35 | 0:37.14 | 12035 | 14823
4 | 3:17.49 | 1:48.24 | 14824 | 22947
5 | 5:05.73 | 0:16.05 | 22948 | 24152
6 | 5:22.03 | 1:53.49 | 24153 | 32676
7 | 7:15.52 | 0:19.15 | 32677 | 34116
8 | 7:34.67 | 3:02.50 | 34117 | 47816
9 | 10:37.42 | 1:21.02 | 47817 | 53893
10 | 11:58.44 | 0:25.42 | 53894 | 55810
11 | 12:24.11 | 2:36.58 | 55811 | 67568
12 | 15:00.69 | 0:26.34 | 67569 | 69552
13 | 15:27.28 | 4:24.09 | 69553 | 89361
14 | 19:51.37 | 5:36.30 | 89362 | 114591
15 | 25:27.67 | 1:17.44 | 114592 | 120410
16 | 26:45.36 | 4:24.54 | 120411 | 140264
17 | 31:10.15 | 4:07.48 | 140265 | 158837
18 | 35:17.63 | 1:03.02 | 158838 | 163564
19 | 36:20.65 | 2:03.29 | 163565 | 172818
20 | 38:24.19 | 0:23.32 | 172819 | 174575
21 | 38:47.51 | 3:28.51 | 174576 | 190226
22 | 42:16.27 | 0:24.54 | 190227 | 192080
23 | 42:41.06 | 2:37.61 | 192081 | 203916
Характеристики диапазона извлечения и сообщения об ошибках
Выбранный диапазон
Имя файла C:\Documents and Settings\Алексей\Рабочий стол\Pauline Viardot and Friends 2\Wigmore Hall - Pauline Viardot and Friends 2.wav
Пиковый уровень 79.4 %
Скорость извлечения 6.7 X
Качество диапазона 99.9 %
CRC теста 07C8D392
CRC копии 07C8D392
Копирование... OK
Ошибок не произошло
Конец отчёта

Содержание индексной карты (.CUE)

DISC 1
REM DISCID FA08E211
REM COMMENT "ExactAudioCopy v1.0b3"
PERFORMER "Wigmore Hall"
TITLE "Pauline Viardot and Friends 1"
FILE "Wigmore Hall - Pauline Viardot and Friends 1.flac" WAVE
TRACK 01 AUDIO
TITLE "Life of Pauline Viardot"
PERFORMER "Wigmore Hall"
INDEX 01 00:00:00
TRACK 02 AUDIO
TITLE "Dve rozy (2 Roses)"
PERFORMER "Wigmore Hall"
INDEX 01 01:42:34
TRACK 03 AUDIO
TITLE "Life of Pauline Viardot"
PERFORMER "Wigmore Hall"
INDEX 01 02:59:15
TRACK 04 AUDIO
TITLE "Celos (Jealousy) (arr. P. Viardot)"
PERFORMER "Wigmore Hall"
INDEX 01 03:14:42
TRACK 05 AUDIO
TITLE "Life of Pauline Viardot"
PERFORMER "Wigmore Hall"
INDEX 01 06:02:25
TRACK 06 AUDIO
TITLE "La regata veneziana, "Voga o Tonio benedetto""
PERFORMER "Wigmore Hall"
INDEX 01 06:35:18
TRACK 07 AUDIO
TITLE "Life of Pauline Viardot"
PERFORMER "Wigmore Hall"
INDEX 01 10:29:12
TRACK 08 AUDIO
TITLE "L'absense (Absence)"
PERFORMER "Wigmore Hall"
INDEX 01 11:09:20
TRACK 09 AUDIO
TITLE "Life of Pauline Viardot"
PERFORMER "Wigmore Hall"
INDEX 01 13:04:38
TRACK 10 AUDIO
TITLE "Berceuse (Lullaby)"
PERFORMER "Wigmore Hall"
INDEX 01 13:11:34
TRACK 11 AUDIO
TITLE "Life of Pauline Viardot"
PERFORMER "Wigmore Hall"
INDEX 01 16:03:26
TRACK 12 AUDIO
TITLE "Le chene et le rosseau (The Oak and the Reed)"
PERFORMER "Wigmore Hall"
INDEX 01 16:29:66
TRACK 13 AUDIO
TITLE "Life of Pauline Viardot"
PERFORMER "Wigmore Hall"
INDEX 01 21:22:70
TRACK 14 AUDIO
TITLE "Utes (Cliff)"
PERFORMER "Wigmore Hall"
INDEX 01 23:17:60
TRACK 15 AUDIO
TITLE "Die Sterne (The Stars)"
PERFORMER "Wigmore Hall"
INDEX 01 26:48:63
TRACK 16 AUDIO
TITLE "Life of Pauline Viardot"
PERFORMER "Wigmore Hall"
INDEX 01 30:54:15
TRACK 17 AUDIO
TITLE "Scene d'Hermione"
PERFORMER "Wigmore Hall"
INDEX 01 31:00:02
DISC 2
REM DISCID 340A9E17
REM COMMENT "ExactAudioCopy v1.0b3"
PERFORMER "Wigmore Hall"
TITLE "Pauline Viardot and Friends 2"
FILE "Wigmore Hall - Pauline Viardot and Friends 2.flac" WAVE
TRACK 01 AUDIO
TITLE "Life of Pauline Viardot"
PERFORMER "Wigmore Hall"
INDEX 01 00:00:00
TRACK 02 AUDIO
TITLE "Sinitsa (Titmouse)"
PERFORMER "Wigmore Hall"
INDEX 01 00:29:01
TRACK 03 AUDIO
TITLE "Life of Pauline Viardot"
PERFORMER "Wigmore Hall"
INDEX 01 02:40:35
TRACK 04 AUDIO
TITLE "Indecision"
PERFORMER "Wigmore Hall"
INDEX 01 03:17:49
TRACK 05 AUDIO
TITLE "Life of Pauline Viardot"
PERFORMER "Wigmore Hall"
INDEX 01 05:05:73
TRACK 06 AUDIO
TITLE "Chanson de printemps"
PERFORMER "Wigmore Hall"
INDEX 01 05:22:03
TRACK 07 AUDIO
TITLE "Life of Pauline Viardot"
PERFORMER "Wigmore Hall"
INDEX 01 07:15:52
TRACK 08 AUDIO
TITLE "De miei giorni (Delire)"
PERFORMER "Wigmore Hall"
INDEX 01 07:34:67
TRACK 09 AUDIO
TITLE "Berceuse"
PERFORMER "Wigmore Hall"
INDEX 01 10:37:42
TRACK 10 AUDIO
TITLE "Life of Pauline Viardot"
PERFORMER "Wigmore Hall"
INDEX 01 11:58:44
TRACK 11 AUDIO
TITLE "Allein (Alone)"
PERFORMER "Wigmore Hall"
INDEX 01 12:24:11
TRACK 12 AUDIO
TITLE "Life of Pauline Viardot"
PERFORMER "Wigmore Hall"
INDEX 01 15:00:69
TRACK 13 AUDIO
TITLE "La captive, orientale, Op. 12"
PERFORMER "Wigmore Hall"
INDEX 01 15:27:28
TRACK 14 AUDIO
TITLE "En mer (At sea)"
PERFORMER "Wigmore Hall"
INDEX 01 19:51:37
TRACK 15 AUDIO
TITLE "Life of Pauline Viardot"
PERFORMER "Wigmore Hall"
INDEX 01 25:27:67
TRACK 16 AUDIO
TITLE "Buria (Storm)"
PERFORMER "Wigmore Hall"
INDEX 01 26:45:36
TRACK 17 AUDIO
TITLE "Cendrillon: C'est moi! Ne craignez rien!"
PERFORMER "Wigmore Hall"
INDEX 01 31:10:15
TRACK 18 AUDIO
TITLE "Life of Pauline Viardot"
PERFORMER "Wigmore Hall"
INDEX 01 35:17:63
TRACK 19 AUDIO
TITLE "Ici-bas tous les lilas meurent"
PERFORMER "Wigmore Hall"
INDEX 01 36:20:65
TRACK 20 AUDIO
TITLE "Life of Pauline Viardot"
PERFORMER "Wigmore Hall"
INDEX 01 38:24:19
TRACK 21 AUDIO
TITLE "Zaklinanie (Incantation)"
PERFORMER "Wigmore Hall"
INDEX 01 38:47:51
TRACK 22 AUDIO
TITLE "Life of Pauline Viardot"
PERFORMER "Wigmore Hall"
INDEX 01 42:16:27
TRACK 23 AUDIO
TITLE "Havanaise"
PERFORMER "Wigmore Hall"
INDEX 01 42:41:06

Дополнительная информация

"The life of Pauline Viardot was truly extraordinary. One of the greatest prima donnas and influential musical figures of the 19th century, she was born in Paris, daughter of Spanish tenor Manuel Garcia and sister of the legendary singer Maria Malibran. As a teenager, already a rising star, she was unofficially adopted by Georges Sand and was the model and inspiration for her novel, Consuela. She studied composition with Anton Reicha and piano with Liszt and Chopin, transcribing Chopin’s Mazurkas for voice and often appearing with him in recital. While a prima donna at the Italian Opera in Paris, she married Louis Viardot and, besides her career as a singer, teacher and composer, and living in the USA, Mexico, Germany, England and France (where she died), she gave birth to four children. She was admired by composers including Fauré, Brahms, Meyerbeer, Gounod, Berlioz, Massenet and Schumann. Many works were dedicated to her and she composed hundreds of songs, chamber works and operettas, writing Cendrillon aged 83! This CD, including world premiere recordings of several Viardot songs, was recorded live at London’s Wigmore Hall. Three singers, Frederica von Stade, Anna Caterina Antonacci and Vladimir Chernov (with the distinguished French actress and film star, Fanny Ardant narrating), evoke Viardot’s world both through her own compositions and those of her illustrious friends, justly demonstrating the genius of her achievements."

Ещё диски с произведениями Полины Виардо

"Полина Виардо - Русские мелодии" (2012)
http://teatrix.ru/viewtopic.php?t=4525008
"Виардо: Мазурки Шопена и другие мелодии" (2014)
http://teatrix.ru/viewtopic.php?t=4928872
"Полина Виардо - Золушка" (2000)
http://teatrix.ru/viewtopic.php?t=4525490
"Полина Виардо-Гарсия - Избранные композиции" (2004)
http://teatrix.ru/viewtopic.php?t=4523925
"Полина Виардо-Гарсия - Избранные композиции" (2000)
http://teatrix.ru/viewtopic.php?t=4523507
"Полина Виардо - Песнь торжествующей любви" (2009)
http://teatrix.ru/viewtopic.php?t=4524242
"Полина Виардо-Гарсия - Избранные композиции" (1989)
http://teatrix.ru/viewtopic.php?t=4931944



Показать сообщения:    

Текущее время: 10-Дек 10:02

Часовой пояс: UTC + 3


Вы не можете начинать темы
Вы не можете отвечать на сообщения
Вы не можете редактировать свои сообщения
Вы не можете удалять свои сообщения
Вы не можете голосовать в опросах
Вы не можете прикреплять файлы к сообщениям
Вы не можете скачивать файлы