(Classica) Pauline Viardot - Melodies russes / Русские мелодии (Jacqueline Laurin, Laurent Martin) - 2012, FLAC (image+.cue) lossless


 

[Цитировать]

Pauline Viardot - Melodies russes / Русские мелодии (Jacqueline Laurin, Laurent Martin)
Жанр: Classica
Страна-производитель диска: Austria
Год издания диска: 2012
Издатель (лейбл): Ligia
Номер по каталогу: 1CD Lidi 0201242-12
Аудиокодек: FLAC
Тип рипа: image+.cue
Битрейт аудио: lossless
Продолжительность: 67:15.31
Источник: собственный рип
Наличие сканов в содержимом раздачи: да
Треклист:
1. Заклинание "О, если правда" (Oh, S'il Est Vrai)
2. Бедняжка я! (Pauvre Moi!)
3. Тихая, звёздная ночь (Calme Et Sainte Nuit)
4. Ночью (Nuit)
5. Полуночные образы (Images De Minuit)
6. Казачья колыбельная песня (Berceuse Cosaque)
7. Ветка палестины (Rameaux De Palestine)
8. Отчего, скажи (Dis-Moi Pourquoi)
9. Две розы (Deux Roses)
10. Серенада: Тихо вечер догорает Soirée Calme Et Chaude
11. На заре (A L'aube)
12. Разлука (Séparation)
13. Цветок засохший, безуханный (Fleur Desséchée)
14. Ива (Saule)
15. Утёс (Le Rocher)
16. Разгадка (Enigme)
17. Звёзды (L'étoile)
18. Не пой, красавица, при мне (Ne Me Chante Plus Ma Jolie)
19. Стоит погода злая! (Il Fait Mauvais Temps)
20. Узник (Le Prisonnier)
21. Для берегов отчизны дальной (Loin De La Patrie)
22. Мне не спится, нет огня (Sans Sommeil Ni Feu)
23. На холмах Грузии (Sur Les Collines De Georgie)
Исполнители:
Jacqueline Laurin - soprano, Laurent Martin - piano
Полина Мишель Фердинанд Гарсиа-Виардо

Лог создания рипа

Exact Audio Copy V1.0 beta 3 from 29. August 2011
Отчёт EAC об извлечении, выполненном 1. сентября 2013, 23:36
Pauline Viardot / Jacqueline Laurin
Дисковод: HL-DT-STDVDRAM GH60N Adapter: 2 ID: 1
Режим чтения : Достоверность
Использование точного потока : Да
Отключение кэша аудио : Да
Использование указателей C2 : Нет
Коррекция смещения при чтении : 667
Способность читать области Lead-in и Lead-out : Нет
Заполнение пропущенных сэмплов тишиной : Да
Удаление блоков с тишиной в начале и конце : Нет
При вычислениях CRC использовались нулевые сэмплы : Да
Интерфейс : Встроенный Win32-интерфейс для Win NT/2000
Выходной формат : Пользовательский кодировщик
Выбранный битрейт : 896 kBit/s
Качество : Высокий
Добавление ID3-тега : Нет
Утилита сжатия : C:\Program Files\Exact Audio Copy\FLAC\FLAC.EXE
Дополнительные параметры : -6 -V -T "ARTIST=%artist%" -T "TITLE=%title%" -T "ALBUM=%albumtitle%" -T "DATE=%year%" -T "TRACKNUMBER=%tracknr%" -T "GENRE=%genre%" -T "COMMENT=%comment%" -T "BAND=%albuminterpret%" -T "ALBUMARTIST=%albuminterpret%" -T "COMPOSER=%composer%" %haslyrics%--tag-from-file=LYRICS="%lyricsfile%"%haslyrics% -T "DISCNUMBER=%cdnumber%" -T "TOTALDISCS=%totalcds%" -T "TOTALTRACKS=%numtracks%" %hascover%--picture="%coverfile%"%hascover% %source% -o %dest%
TOC извлечённого CD
Трек | Старт | Длительность | Начальный сектор | Конечный сектор
---------------------------------------------------------------------
1 | 0:00.00 | 3:33.30 | 0 | 16004
2 | 3:33.30 | 3:17.45 | 16005 | 30824
3 | 6:51.00 | 2:43.46 | 30825 | 43095
4 | 9:34.46 | 2:43.00 | 43096 | 55320
5 | 12:17.46 | 2:35.00 | 55321 | 66945
6 | 14:52.46 | 5:22.73 | 66946 | 91168
7 | 20:15.44 | 4:02.16 | 91169 | 109334
8 | 24:17.60 | 3:39.29 | 109335 | 125788
9 | 27:57.14 | 0:57.61 | 125789 | 130124
10 | 28:55.00 | 1:41.16 | 130125 | 137715
11 | 30:36.16 | 3:27.29 | 137716 | 153269
12 | 34:03.45 | 3:37.01 | 153270 | 169545
13 | 37:40.46 | 3:15.14 | 169546 | 184184
14 | 40:55.60 | 1:03.60 | 184185 | 188969
15 | 41:59.45 | 3:39.44 | 188970 | 205438
16 | 45:39.14 | 2:16.47 | 205439 | 215685
17 | 47:55.61 | 4:12.01 | 215686 | 234586
18 | 52:07.62 | 2:43.28 | 234587 | 246839
19 | 54:51.15 | 3:11.60 | 246840 | 261224
20 | 58:03.00 | 2:59.00 | 261225 | 274649
21 | 61:02.00 | 2:47.25 | 274650 | 287199
22 | 63:49.25 | 3:26.06 | 287200 | 302655
23 | 67:15.31 | 2:17.44 | 302656 | 312974
Характеристики диапазона извлечения и сообщения об ошибках
Выбранный диапазон
Имя файла C:\Documents and Settings\Алексей\Рабочий стол\Jacqueline Laurin\Pauline Viardot - Jacqueline Laurin.wav
Пиковый уровень 56.9 %
Скорость извлечения 29.0 X
Качество диапазона 100.0 %
CRC теста C2423986
CRC копии C2423986
Копирование... OK
Ошибок не произошло
AccurateRip: сводка
Трек 1 : извлечено точно (доверие 1) [F777D5F3] (AR v2)
Трек 2 : извлечено точно (доверие 1) [D9164C24] (AR v2)
Трек 3 : извлечено точно (доверие 1) [E94A9C09] (AR v2)
Трек 4 : извлечено точно (доверие 1) [49C3E75F] (AR v2)
Трек 5 : извлечено точно (доверие 1) [0E549BB8] (AR v2)
Трек 6 : извлечено точно (доверие 1) [551C8CDF] (AR v2)
Трек 7 : извлечено точно (доверие 1) [52D25363] (AR v2)
Трек 8 : извлечено точно (доверие 1) [E24CF0B6] (AR v2)
Трек 9 : извлечено точно (доверие 1) [1F6C47F7] (AR v2)
Трек 10 : извлечено точно (доверие 1) [D8FBD8A4] (AR v2)
Трек 11 : извлечено точно (доверие 1) [11C423C7] (AR v2)
Трек 12 : извлечено точно (доверие 1) [89A23D8D] (AR v2)
Трек 13 : извлечено точно (доверие 1) [712BE15A] (AR v2)
Трек 14 : извлечено точно (доверие 1) [660089DE] (AR v2)
Трек 15 : извлечено точно (доверие 1) [EC483752] (AR v2)
Трек 16 : извлечено точно (доверие 1) [0F9097A2] (AR v2)
Трек 17 : извлечено точно (доверие 1) [B2C6ED90] (AR v2)
Трек 18 : извлечено точно (доверие 1) [628E8780] (AR v2)
Трек 19 : извлечено точно (доверие 1) [51CAE71E] (AR v2)
Трек 20 : извлечено точно (доверие 1) [BF3B5E2F] (AR v2)
Трек 21 : извлечено точно (доверие 1) [BB494EAC] (AR v2)
Трек 22 : извлечено точно (доверие 1) [738093A9] (AR v2)
Трек 23 : извлечено точно (доверие 1) [35831288] (AR v2)
Все треки извлечены точно
Конец отчёта

Содержание индексной карты (.CUE)

REM DISCID 65104D17
REM COMMENT "ExactAudioCopy v1.0b3"
PERFORMER "Pauline Viardot"
TITLE "Jacqueline Laurin"
FILE "Pauline Viardot - Jacqueline Laurin.flac" WAVE
TRACK 01 AUDIO
TITLE "Oh, S'il Est Vrai"
PERFORMER "Pauline Viardot"
INDEX 01 00:00:00
TRACK 02 AUDIO
TITLE "Pauvre Moi!"
PERFORMER "Pauline Viardot"
INDEX 01 03:33:30
TRACK 03 AUDIO
TITLE "Calme Et Sainte Nuit"
PERFORMER "Pauline Viardot"
INDEX 01 06:51:00
TRACK 04 AUDIO
TITLE "Nuit"
PERFORMER "Pauline Viardot"
INDEX 01 09:34:46
TRACK 05 AUDIO
TITLE "Images De Minuit"
PERFORMER "Pauline Viardot"
INDEX 01 12:17:46
TRACK 06 AUDIO
TITLE "Berceuse Cosaque"
PERFORMER "Pauline Viardot"
INDEX 01 14:52:46
TRACK 07 AUDIO
TITLE "Rameaux De Palestine"
PERFORMER "Pauline Viardot"
INDEX 01 20:15:44
TRACK 08 AUDIO
TITLE "Dis-Moi Pourquoi"
PERFORMER "Pauline Viardot"
INDEX 01 24:17:60
TRACK 09 AUDIO
TITLE "Deux Roses"
PERFORMER "Pauline Viardot"
INDEX 01 27:57:14
TRACK 10 AUDIO
TITLE "Soiree Calme Et Chaude"
PERFORMER "Pauline Viardot"
INDEX 01 28:55:00
TRACK 11 AUDIO
TITLE "A L'aube"
PERFORMER "Pauline Viardot"
INDEX 01 30:36:16
TRACK 12 AUDIO
TITLE "Separation"
PERFORMER "Pauline Viardot"
INDEX 01 34:03:45
TRACK 13 AUDIO
TITLE "Fleur Dessechee"
PERFORMER "Pauline Viardot"
INDEX 01 37:40:46
TRACK 14 AUDIO
TITLE "Saule"
PERFORMER "Pauline Viardot"
INDEX 01 40:55:60
TRACK 15 AUDIO
TITLE "Le Rocher"
PERFORMER "Pauline Viardot"
INDEX 01 41:59:45
TRACK 16 AUDIO
TITLE "Enigme"
PERFORMER "Pauline Viardot"
INDEX 01 45:39:14
TRACK 17 AUDIO
TITLE "L'etoile"
PERFORMER "Pauline Viardot"
INDEX 01 47:55:61
TRACK 18 AUDIO
TITLE "Ne Me Chante Plus Ma Jolie"
PERFORMER "Pauline Viardot"
INDEX 01 52:07:62
TRACK 19 AUDIO
TITLE "Il Fait Mauvais Temps"
PERFORMER "Pauline Viardot"
INDEX 01 54:51:15
TRACK 20 AUDIO
TITLE "Le Prisonnier"
PERFORMER "Pauline Viardot"
INDEX 01 58:03:00
TRACK 21 AUDIO
TITLE "Loin De La Patrie"
PERFORMER "Pauline Viardot"
INDEX 01 61:02:00
TRACK 22 AUDIO
TITLE "Sans Sommeil Ni Feu"
PERFORMER "Pauline Viardot"
INDEX 01 63:49:25
TRACK 23 AUDIO
TITLE "Sur Les Collines De Georgie "
PERFORMER "Pauline Viardot"
INDEX 01 67:15:31

Ещё диски с произведениями Полины Виардо

"Полина Виардо и Друзья" (2007)
http://teatrix.ru/viewtopic.php?t=4524431
"Полина Виардо - Золушка" (2000)
http://teatrix.ru/viewtopic.php?t=4525490
"Виардо: Мазурки Шопена и другие мелодии" (2014)
http://teatrix.ru/viewtopic.php?t=4928872
"Полина Виардо-Гарсия - Избранные композиции" (2004)
http://teatrix.ru/viewtopic.php?t=4523925
"Полина Виардо-Гарсия - Избранные композиции" (2000)
http://teatrix.ru/viewtopic.php?t=4523507
"Полина Виардо - Песнь торжествующей любви" (2009)
http://teatrix.ru/viewtopic.php?t=4524242
"Полина Виардо-Гарсия - Избранные композиции" (1989)
http://teatrix.ru/viewtopic.php?t=4931944
Доп. информация:
Полина Виардо навсегда осталась ревностной исполнительницей русских романсов. Она не только исполняла романсы, но и была их сочинительницей. Полина начала писать музыку к романсам на стихи русских композиторов в Париже в начале 1860-х годов. Продолжала работать над романсами и после переезда семьи в Баден-Баден. В 1864, 1865 и 1868 годах вышли три сборника ее романсов на стихи русских поэтов. На этом диске находится сборник по стихам А.С.Пушкина, М.Павловой, Афанасия Фета, Михаила Лермонтова, Алексея Кольцова, Ф.Тютчева, И.С.Тургенева.



Показать сообщения:    

Текущее время: 11-Дек 09:13

Часовой пояс: UTC + 3


Вы не можете начинать темы
Вы не можете отвечать на сообщения
Вы не можете редактировать свои сообщения
Вы не можете удалять свои сообщения
Вы не можете голосовать в опросах
Вы не можете прикреплять файлы к сообщениям
Вы не можете скачивать файлы