(Classical) Pauline Viardot - Cendrillon / Золушка (Andre Cognet, Sandrine Piau, Jean Rigby, Susannah Waters, Elizabeth Vidal, Jean-Luc Viala, Paul Austin Kelly, Elizabeth Vidal, Geoffrey Mitchell, Nicholas Kok) - 2000, FLAC (image+.cue) lossless


 

[Цитировать]

Pauline Viardot - Cendrillon / Золушка
Жанр: Classical
Страна-производитель диска: England
Год издания диска: 2000
Издатель (лейбл): Opera Rara
Номер по каталогу: ORR 212
Аудиокодек: FLAC
Тип рипа: image+.cue
Битрейт аудио: lossless
Продолжительность: 01:02:30
Источник: собственный рип
Наличие сканов в содержимом раздачи: да
Треклист:
1. Act I Scene 1: Il etait jadis un Prince (Cinderella) - Scene 2: Entrez, brave homma (Cinderella, Beggar) - Scene 3: Oh! La charmante fille! (Beggar) - Scene 4: Helas! Mon brave homme
2. Act I Scene 5: Nous sommes assaillis par cette
3. Act I Scene 5: Si je n'y venais pas (Cinderella) - Scene 6: Mon auguste maitre (Prince, Armelinde) - Scene 7: Il est tres bien cet homme-la! (Maguelonne)
4. Act I Scene 7: Oui, oui, les plus belles de toutes (Maguelonne, Cinderella, Armelinde) - Scene 8: Cheres soeurs (Cinderella) - Scene 9: Bonjour, mon pere (Cinderella, Baron, The Sisters)
5. Act I Scene 10: Hier je vis circuler une voiture immense (Baron) - Scene 11: Eh! Mes filles! (Baron, Armelinde, Maguelonne)
6. Act I Scene 11: Attendez, attendez- moi! (Baron) - Scene 12: Je serai charmante (Maguelonne, Cinderella, Armelinde)
7. Act I Scene 12: Eh! Petite soeur, est-ce que cela ne (Maguelonne, Cinderella, Armelinde) - Scene 13: Ah! Il etait ? (Cinderella, A Voice)
8. Act I Scene 14: Releve-toi, seche tes pleurs (Fairy Godmother)
9. Act I Scene 14: Chere marraine, que dois-je-faire? (Cinderella, Fairy Godmother)
10. Act I Scene 14: Je vous le promets, ma marriane (Cinderella, Fairy Godmother)
11. Act II Scene 1: Puisque ma voila Prince (Barigoule)
12. Act II Scene 2: Attention! (Prince, Barigoule, Baron, Armelinde, Maguelonne)
13. Act II Scene 3: Madame, qui ai-je le bonheur (Barigoule, Guests, Cinderella, Prince, Armelinde)
14. Act II Scene 3: Desirez-vous un air de bravoure? (Lady, Prince, Cinderella, Barigoule)
15. Act II Scene 3: De n'aimer que toi (Cinderella, Prince, Barigoule)
16. Act II Scene 3: Le menuet, le menuet! (Lady Guests, Barigoule, Armelinde)
17. Act II Scene 4: C'est moi, ne craignez rien (Prince, Cinderella, Guests)
18. Act III Scene 1: Je ne sais pourquoi, mais je ne (Baron) - Scene 2: Votre Altesse me fait (Baron, Barigoule)
19. Act III Scene 2: Ah! J'entends ces dames (Barigoule) - Scene 3: Quelle drole d'adventure! (Ladies, Barigoule, Royal Footmen)
20. Act III Scene 4: Mesdames, je vous remercie (Prince, Barigoule, Armelinde, Maguelonne) - Scene 5: Oh! Le charmant petit pied! (Barigoule, Prince, Cinderella, Armelinde, Maguelonne, Baron)
21. Act III Scene 6: Ah! ? Je viens pour la derniere fois (Fairy Godmother, Cinderella, All)
Исполнители:
André Cognet - Le Baron de Pictordu / Барон де Пиктордю,
Sandrine Piau - Marie (called Cendrillon) / Мари (прозванная Золушкой),
Jean Rigby - Armelinde / Армелинда,
Susannah Waters - Maguelonne / Магелонн,
Elizabeth Vidal - La Fée (The Fairy Godmother) / Фея,
Jean-Luc Viala - Le Prince Charmant / Прекрасный принц,
Paul Austin Kelly - Le Comte Barigoule / Граф Баригуль,
Elizabeth Vidal - A Lady at the party / Леди на балу.
Geoffrey Mitchell Choir,
Pianist and Conductor: Nicholas Kok.
Полина Мишель Фердинанд Гарсиа-Виардо

Лог создания рипа

Exact Audio Copy V1.0 beta 3 from 29. August 2011
Отчёт EAC об извлечении, выполненном 2. сентября 2013, 14:03
Pauline Viardot / Cendrillon
Дисковод: HL-DT-STDVDRAM GH60N Adapter: 2 ID: 1
Режим чтения : Достоверность
Использование точного потока : Да
Отключение кэша аудио : Да
Использование указателей C2 : Нет
Коррекция смещения при чтении : 667
Способность читать области Lead-in и Lead-out : Нет
Заполнение пропущенных сэмплов тишиной : Да
Удаление блоков с тишиной в начале и конце : Нет
При вычислениях CRC использовались нулевые сэмплы : Да
Интерфейс : Встроенный Win32-интерфейс для Win NT/2000
Выходной формат : Пользовательский кодировщик
Выбранный битрейт : 896 kBit/s
Качество : Высокий
Добавление ID3-тега : Нет
Утилита сжатия : C:\Program Files\Exact Audio Copy\FLAC\FLAC.EXE
Дополнительные параметры : -6 -V -T "ARTIST=%artist%" -T "TITLE=%title%" -T "ALBUM=%albumtitle%" -T "DATE=%year%" -T "TRACKNUMBER=%tracknr%" -T "GENRE=%genre%" -T "COMMENT=%comment%" -T "BAND=%albuminterpret%" -T "ALBUMARTIST=%albuminterpret%" -T "COMPOSER=%composer%" %haslyrics%--tag-from-file=LYRICS="%lyricsfile%"%haslyrics% -T "DISCNUMBER=%cdnumber%" -T "TOTALDISCS=%totalcds%" -T "TOTALTRACKS=%numtracks%" %hascover%--picture="%coverfile%"%hascover% %source% -o %dest%
TOC извлечённого CD
Трек | Старт | Длительность | Начальный сектор | Конечный сектор
---------------------------------------------------------------------
1 | 0:00.00 | 5:24.68 | 0 | 24367
2 | 5:24.68 | 3:07.01 | 24368 | 38393
3 | 8:31.69 | 2:56.22 | 38394 | 51615
4 | 11:28.16 | 1:56.30 | 51616 | 60345
5 | 13:24.46 | 2:28.29 | 60346 | 71474
6 | 15:53.00 | 0:40.61 | 71475 | 74535
7 | 16:33.61 | 2:39.32 | 74536 | 86492
8 | 19:13.18 | 2:10.16 | 86493 | 96258
9 | 21:23.34 | 2:52.18 | 96259 | 109176
10 | 24:15.52 | 1:16.36 | 109177 | 114912
11 | 25:32.13 | 4:41.35 | 114913 | 136022
12 | 30:13.48 | 1:32.71 | 136023 | 142993
13 | 31:46.44 | 2:30.40 | 142994 | 154283
14 | 34:17.09 | 3:42.02 | 154284 | 170935
15 | 37:59.11 | 3:03.48 | 170936 | 184708
16 | 41:02.59 | 1:42.33 | 184709 | 192391
17 | 42:45.17 | 5:05.63 | 192392 | 215329
18 | 47:51.05 | 7:03.63 | 215330 | 247117
19 | 54:54.68 | 1:56.62 | 247118 | 255879
20 | 56:51.55 | 2:47.20 | 255880 | 268424
21 | 59:39.00 | 2:49.00 | 268425 | 281099
Характеристики диапазона извлечения и сообщения об ошибках
Выбранный диапазон
Имя файла C:\Documents and Settings\Алексей\Рабочий стол\Cendrillon\Pauline Viardot - Cendrillon.wav
Пиковый уровень 92.7 %
Скорость извлечения 28.4 X
Качество диапазона 100.0 %
CRC теста 2CC6CBBE
CRC копии 2CC6CBBE
Копирование... OK
Ошибок не произошло
Конец отчёта

Содержание индексной карты (.CUE)

REM DISCID 3E0EA415
REM COMMENT "ExactAudioCopy v1.0b3"
PERFORMER "Pauline Viardot"
TITLE "Cendrillon"
FILE "Pauline Viardot - Cendrillon.flac" WAVE
TRACK 01 AUDIO
TITLE "Act I Scene 1,2,3,4"
PERFORMER "Pauline Viardot"
INDEX 01 00:00:00
TRACK 02 AUDIO
TITLE "Act I Scene 5: Nous sommes assaillis par cette"
PERFORMER "Pauline Viardot"
INDEX 01 05:24:68
TRACK 03 AUDIO
TITLE "Act I Scene 5: Si je n'y venais pas (Cinderella) - Scene 6"
PERFORMER "Pauline Viardot"
INDEX 01 08:31:69
TRACK 04 AUDIO
TITLE "Act I Scene 7,8,9"
PERFORMER "Pauline Viardot"
INDEX 01 11:28:16
TRACK 05 AUDIO
TITLE "Act I Scene 10,11: Eh! Mes filles!"
PERFORMER "Pauline Viardot"
INDEX 01 13:24:46
TRACK 06 AUDIO
TITLE "Act I Scene 11: Attendez, attendez- moi!"
PERFORMER "Pauline Viardot"
INDEX 01 15:53:00
TRACK 07 AUDIO
TITLE "Act I Scene 12,13"
PERFORMER "Pauline Viardot"
INDEX 01 16:33:61
TRACK 08 AUDIO
TITLE "Act I Scene 14: Releve-toi, seche tes pleurs"
PERFORMER "Pauline Viardot"
INDEX 01 19:13:18
TRACK 09 AUDIO
TITLE "Act I Scene 14: Chere marraine, que dois-je-faire?"
PERFORMER "Pauline Viardot"
INDEX 01 21:23:34
TRACK 10 AUDIO
TITLE "Act I Scene 14: Je vous le promets, ma marriane"
PERFORMER "Pauline Viardot"
INDEX 01 24:15:52
TRACK 11 AUDIO
TITLE "Act II Scene 1: Puisque ma voila Prince"
PERFORMER "Pauline Viardot"
INDEX 01 25:32:13
TRACK 12 AUDIO
TITLE "Act II Scene 2: Attention!"
PERFORMER "Pauline Viardot"
INDEX 01 30:13:48
TRACK 13 AUDIO
TITLE "Act II Scene 3: Madame, qui ai-je le bonheur"
PERFORMER "Pauline Viardot"
INDEX 01 31:46:44
TRACK 14 AUDIO
TITLE "Act II Scene 3: Desirez-vous un air de bravoure?"
PERFORMER "Pauline Viardot"
INDEX 01 34:17:09
TRACK 15 AUDIO
TITLE "Act II Scene 3: De n'aimer que toi"
PERFORMER "Pauline Viardot"
INDEX 01 37:59:11
TRACK 16 AUDIO
TITLE "Act II Scene 3: Le menuet, le menuet!"
PERFORMER "Pauline Viardot"
INDEX 01 41:02:59
TRACK 17 AUDIO
TITLE "Act II Scene 4: C'est moi, ne craignez rien"
PERFORMER "Pauline Viardot"
INDEX 01 42:45:17
TRACK 18 AUDIO
TITLE "Act III Scene 1,2: Votre Altesse me fait"
PERFORMER "Pauline Viardot"
INDEX 01 47:51:05
TRACK 19 AUDIO
TITLE "Act III Scene 2,3: Quelle drole d'adventure!"
PERFORMER "Pauline Viardot"
INDEX 01 54:54:68
TRACK 20 AUDIO
TITLE "Act III Scene 4,5"
PERFORMER "Pauline Viardot"
INDEX 01 56:51:55
TRACK 21 AUDIO
TITLE "Act III Scene 6: Ah! ? Je viens pour la derniere fois"
PERFORMER "Pauline Viardot"
INDEX 01 59:39:00

Ещё диски с произведениями Полины Виардо

"Полина Виардо и Друзья" (2007)
http://teatrix.ru/viewtopic.php?t=4524431
"Полина Виардо - Русские мелодии" (2012)
http://teatrix.ru/viewtopic.php?t=4525008
"Виардо: Мазурки Шопена и другие мелодии" (2014)
http://teatrix.ru/viewtopic.php?t=4928872
"Полина Виардо-Гарсия - Избранные композиции" (2004)
http://teatrix.ru/viewtopic.php?t=4523925
"Полина Виардо-Гарсия - Избранные композиции" (2000)
http://teatrix.ru/viewtopic.php?t=4523507
"Полина Виардо - Песнь торжествующей любви" (2009)
http://teatrix.ru/viewtopic.php?t=4524242
"Полина Виардо-Гарсия - Избранные композиции" (1989)
http://teatrix.ru/viewtopic.php?t=4931944
Доп. информация:
Действие происходит во Франции в начале XX века. Сюжет базируется на сказке "Золушка, или Хрустальная туфелька" [Cendrillon, ou la Petite Pantoufle de verre] (1697) Шарля Перро.



Показать сообщения:    

Текущее время: 08-Дек 19:10

Часовой пояс: UTC + 3


Вы не можете начинать темы
Вы не можете отвечать на сообщения
Вы не можете редактировать свои сообщения
Вы не можете удалять свои сообщения
Вы не можете голосовать в опросах
Вы не можете прикреплять файлы к сообщениям
Вы не можете скачивать файлы