Людмила Синельникова - Зарядка на берегу моря (Валерий Синельников) [2009 г., фитнес, здоровье, позитивное мышление, DVDRip, RUS] (Видеоурок)


Статистика раздачи [Обновить пиров]
Размер:  1.11 GB   |    Зарегистрирован:  8 месяцев 19 дней   |    Скачан:  0 раз

Полного источника не было: Никогда

 
   
 
 
 

[Цитировать]

Людмила Синельникова - Зарядка на берегу моря
Видеотренинг
- Год выпуска: 2009
Страна: Украина
Жанр: фитнес, здоровье, позитивное мышление
Продолжительность: 01:46:51
Язык: Русский-Описание:
Валерий Владимирович Синельников — врач, гомеопат, учитель и писатель, автор психологических методик, изложенных в книгах «Возлюби болезнь свою», «Сила намерения», «Прививка от стресса, или Психоэнергетическое айкидо», «Путь к богатству, или Где зарыты сокровища», «Практический курс доктора Синельникова, или Как научиться любить себя», «Таинственная сила слова. Формула любви» и др. Благодаря его «Природоведической модели человеческого сознания и подсознательного программирования» многим удалось не просто наладить свою жизнь, изменить себя к лучшему, но и избавиться от болезней, даже неизлечимых с точки зрения современной медицины, поверить в себя и в свою уникальность, научиться управлять своей жизнью, понимать ее процессы, обрести любовь и материальное благополучие, то есть стать Хозяином, Творцом своей судьбы поверить в себя и всвою виться от болезней, даже с точки зрения современной медицины неизлечимых.-От издателя:
На "Больших" семинарах мы каждое утро начинаем с зарядки на берегу моря. И по многочисленным просьбам мы создали новый видеофильм с полюбившейся всем зарядкой. На диске представлено 4 комплекса физических упражнений.
I комплекс. Энергичные упражнения в быстром темпе, задействующие все группы мышц. Дыхательные упражнения. Релаксация.
II, III и IV комплексы - Включают в себя различные виды растягиваний для тела; позволяют улучшить состояние позвоночника и укрепить мышцы спины.
Также вы увидите упражнения на равновесие, дыхательные практики с подробным показом и пояснениями. Каждый комплекс завершается релаксацией, и вы с помощью специальных приёмов научитесь достигать состояния покоя и умиротворения.
-Качество: DVDRip
Формат: AVI
Видео кодек: XviD build 50
Аудио кодек: MPEG Layer 3
Видео: XviD, 640 x 480, 4/3, 1 577 Kbps, 25.000 fps, 0.205 b/px
Аудио: MPEG-1 Audio layer 3, 128 Kbps, CBR, 48.0 KHz, 2 ch.
-
Спасибо mbrigandm за DVDДополнительно
Синельников Валерий Владимирович - 8 книг (3 новых) [2006-2009, RTF, RUS]
(психологический тренинг) Валерий Синельников - Настрой на исцеление и оздоровление организма, APE (image+.cue), lossless
Валерий Синельников - Формула жизни. Как обрести личную силу [2009, PDF, RUS]

Отчет MI DVD
Complete name                    : \Зарядка на берегу моря\Зарядка на берегу моря\VTS_01_1.VOB
Format                           : MPEG-PS
File size                        : 1 024 MiB
Duration                         : 24mn 16s
Overall bit rate                 : 5 896 Kbps
[br]
Video
ID                               : 224 (0xE0)
Format                           : MPEG Video
Format version                   : Version 2
Format profile                   : Main@Main
Format settings, BVOP            : Yes
Format settings, Matrix          : Default
Duration                         : 24mn 16s
Bit rate mode                    : Variable
Bit rate                         : 5 586 Kbps
Nominal bit rate                 : 9 641 Kbps
Width                            : 720 pixels
Height                           : 576 pixels
Display aspect ratio             : 4:3
Frame rate                       : 25.000 fps
Standard                         : PAL
Color space                      : YUV
Chroma subsampling               : 4:2:0
Bit depth                        : 8 bits
Scan type                        : Interlaced
Scan order                       : Bottom Field First
Bits/(Pixel*Frame)               : 0.539
Stream size                      : 970 MiB (95%)
[br]
Audio
ID                               : 128 (0x80)
Format                           : AC-3
Format/Info                      : Audio Coding 3
Mode extension                   : CM (complete main)
Duration                         : 24mn 16s
Bit rate mode                    : Constant
Bit rate                         : 192 Kbps
Channel(s)                       : 2 channels
Channel positions                : Front: L R
Sampling rate                    : 48.0 KHz
Bit depth                        : 16 bits
Stream size                      : 33.3 MiB (3%)
[br]
Menu
Релиз от группы
[teatrix.ru].t17615.torrent 
Торрент: Зарегистрирован [ 2016-03-17 00:53 ] · EFE656C4B49F44B7307A7F62A9B1887CA3BB1BC4

Скачать .torrent

Скачать

12 KB

Статус: проверено
Скачан: 0 раз
Размер: 1.11 GB
terms.php



Быстрый ответ

Имя:

      
Для отправки сообщений необходимо включить JavaScript
Показать сообщения:    

Текущее время: 05-Дек 23:40

Часовой пояс: UTC + 3


Вы можете начинать темы
Вы можете отвечать на сообщения
Вы не можете редактировать свои сообщения
Вы не можете удалять свои сообщения
Вы не можете голосовать в опросах
Вы не можете прикреплять файлы к сообщениям
Вы можете скачивать файлы